当前位置: 首页 >> 国产电影 >> 重启地球[国语配音/中文字幕].Restart.The.Earth.2021.1080p.WEB-DL.H264.AAC 32.88GB >> 正文

重启地球[国语配音/中文字幕].Restart.The.Earth.2021.1080p.WEB-DL.H264.AAC 32.88GB

2021年09月18日 11:53:47     电影发布:来源于网络     电影分类:国产电影     评论(0)    

重启地球[国语配音/中文字幕].Restart.The.Earth.2021.1080p.WEB DL.H264.AAC 32.88GB 科幻片 剧情片 国产电影  第1张

◎译 名 重启地球 / 大灾变

◎年 代 2021

◎产 地 中国大陆

◎类 别 剧情 / 科幻

◎语 言 汉语普通话

◎上映日期 2021-09-03(中国大陆网络)

◎IMDb链接 https://www.imdb.com/title//

◎豆瓣链接 https://movie.douban.com/subject/35411088/

◎片 长 90分钟

◎导 演 林珍钊 Zhenzhao Lin (id:1370100)

◎编 剧 张圣帆 Shengfan Zhang (id:1410951)

◎演 员 何晟铭 Shengming He (id:1313000)

罗米 Mi Luo (id:1365997)

叶璇 Michelle Ye (id:1005537)

于荣光 Ringo Yu (id:1274556)

◎标 签 科幻 / 电影 / 比较喜欢科幻的电影 / 中国大陆 / 好看觉得 / 2021 / 好 / 影人

◎简 介

《重启地球》讲述发生在真实环境中,一群真实的人,他们在末日自救中的真情流露,重点刻画一个普通家庭中的父女关系。影片同时饱含着特别中国化的价值观,比如人定胜天,有坚忍和努力,有牺牲和奉献,众人一起战胜史无前例的灾难。

  1. ##### MediaInfo ######

  2. General

  3. Complete name : 重启地球[email protected]p4

  4. Format : MPEG-4

  5. Format profile : Base Media

  6. Codec ID : isom (isom/iso2/avc1/mp41)

  7. File size : 32.9 GiB

  8. Duration : 1 h 29 min

  9. Overall bit rate mode : Variable

  10. Overall bit rate : 52.8 Mb/s

  11. Encoded date : UTC 2021-08-20 23:17:07

  12. Tagged date : UTC 2021-08-20 23:17:07

  13. Writing application : Lavf58.45.100


  14. Video

  15. ID : 1

  16. Format : AVC

  17. Format/Info : Advanced Video Codec

  18. Format profile : [email protected]

  19. Format settings : CABAC / 2 Ref Frames

  20. Format settings, CABAC : Yes

  21. Format settings, Reference frames : 2 frames

  22. Codec ID : avc1

  23. Codec ID/Info : Advanced Video Coding

  24. Duration : 1 h 29 min

  25. Bit rate mode : Variable

  26. Bit rate : 52.5 Mb/s

  27. Maximum bit rate : 768 kb/s

  28. Width : 2 048 pixels

  29. Height : 768 pixels

  30. Display aspect ratio : 2.667

  31. Frame rate mode : Constant

  32. Frame rate : 25.000 FPS

  33. Color space : YUV

  34. Chroma subsampling : 4:2:0

  35. Bit depth : 8 bits

  36. Scan type : Progressive

  37. Bits/(Pixel*Frame) : 1.336

  38. Stream size : 32.7 GiB (99%)

  39. Encoded date : UTC 2021-08-20 23:17:07

  40. Tagged date : UTC 2021-08-20 23:17:07

  41. Color range : Limited

  42. Color primaries : BT.709

  43. Matrix coefficients : BT.709

  44. Codec configuration box : avcC


  45. Audio

  46. ID : 2

  47. Format : AAC LC

  48. Format/Info : Advanced Audio Codec Low Complexity

  49. Codec ID : mp4a-40-2

  50. Duration : 1 h 29 min

  51. Bit rate mode : Constant

  52. Bit rate : 320 kb/s

  53. Channel(s) : 2 channels

  54. Channel layout : L R

  55. Sampling rate : 48.0 kHz

  56. Frame rate : 46.875 FPS (1024 SPF)

  57. Compression mode : Lossy

  58. Stream size : 204 MiB (1%)

  59. Default : Yes

  60. Alternate group : 1

  61. Encoded date : UTC 2021-08-20 23:17:07

  62. Tagged date : UTC 2021-08-20 23:17:07


  63. Other

  64. ID : 3

  65. Type : Time code

  66. Format : QuickTime TC

  67. Duration : 1 h 29 min

  68. Frame rate : 25.000 FPS

  69. Time code of first frame : 00:00:00:00

  70. Time code, striped : Yes

  71. Language : English

  72. Default : No

  73. Encoded date : UTC 2021-08-20 23:17:07

  74. Tagged date : UTC 2021-08-20 23:17:07


文件下载


除非特别注明,本文『重启地球[国语配音/中文字幕].Restart.The.Earth.2021.1080p.WEB-DL.H264.AAC 32.88GB』来源于互联网机器人自动抓取,非本站原创。 浮游电影网不对本文拥有版权,如有侵犯,请联系邮箱:fuyouu#yandex.com[#换成@]投诉。我们会在15个工作日内删除。 但烦请转载时请标明出处:“本文转载于『浮游电影网』,原文地址:https://www.fuyouu.com/14432.html

评论吧骚年!

发表你的见解   

昵称*

E-mail*(建议输入,以便收到博主回复的提示邮件)

验证码*

您可以使用eMule或eMule Mod(Windows)、aMule(Win、Linux、Mac)等软件下载eD2k链接。。
eMule收藏集(.emulecollection)文件是您选中的所有链接的列表文件。eMule可以直接下载它们。
按住SHIFT键选择可以选中多个选择框。
可用文件名和大小选择器来选择文件。
文件名选择器帮您根据文件名称或后缀来选择文件。不分大小写。
符号使用:
和:空格( )、+
不包含:-
或:|
转义:一对英文引号("");
匹配开头:^
匹配结尾:$
例如:
选中所有名称中包含有“eMule”或“0.49c”字眼,但不包含有“exe”字眼的:emule|0.49c -exe
选中所有名称的开头是“eMule”,结尾是“0.49c”的:^emule 0.49c$
选中所有名称中带有“eMule 0.49c”的(必须是“eMule 0.49c”,中间没有别的字符,不能是“eMule fake 0.49c”),需要转义:"emule 0.49c"
大小选择器帮您根据文件大小选择文件。