当前位置: 首页 >> 海外电影 >> 危机[中文字幕].Crisis.2021.1080p.BluRay.DTS.x265-10bit 6.77GB >> 正文

危机[中文字幕].Crisis.2021.1080p.BluRay.DTS.x265-10bit 6.77GB

2021年09月18日 11:51:37     电影发布:来源于网络     电影分类:海外电影     评论(0)    

危机[中文字幕].Crisis.2021.1080p.BluRay.DTS.x265 10bit 6.77GB 惊悚片 剧情片 海外电影  第1张

◎译 名 危机 / 药命交错(台) / 幻境 / 梦境 / Dreamland

◎片 名 Crisis

◎年 代 2021

◎产 地 加拿大 / 比利时

◎类 别 剧情 / 惊悚

◎语 言 英语

◎上映日期 2021-02-26(美国) / 2021-03-05(美国网络)

◎IMDb链接 https://www.imdb.com/title/tt9731682/

◎豆瓣评分 5.8/10 (649人评价)

◎豆瓣链接 https://movie.douban.com/subject/30454221/

◎片 长 115分钟

◎导 演 尼古拉斯·亚雷茨基 Nicholas Jarecki (id:1336863)

◎编 剧 尼古拉斯·亚雷茨基 Nicholas Jarecki (id:1336863)

◎演 员 加里·奥德曼 Gary Oldman (id:1010507)

艾米·汉莫 Armie Hammer (id:1049997)

伊万杰琳·莉莉 Evangeline Lilly (id:1021963)

格雷戈·金尼尔 Greg Kinnear (id:1019040)

米歇尔·罗德里格兹 Michelle Rodriguez (id:1025174)

卡迪小子 Kid Cudi (id:1273118)

因迪拉·瓦玛 Indira Varma (id:1313696)

莉莉-罗丝·德普 Lily-Rose Melody Depp (id:1342384)

米娅·科施娜 Mia Kirshner (id:1004585)

迈克尔·阿伦诺夫 Michael Aronov (id:1343048)

维罗尼卡·费瑞尔 Veronica Ferres (id:1018404)

尼古拉斯·亚雷茨基 Nicholas Jarecki (id:1336863)

约翰·拉尔斯顿 John Ralston (id:1145096)

马丁·唐文 Martin Donovan (id:1025232)

埃里克·布吕诺 éric Bruneau (id:1352350)

杜克·尼科尔森 Duke Nicholson (id:1400858)

埃洛拉·托尔基亚 Ellora Torchia (id:1396906)

卢克·伊万斯 Luke Evans (id:1276136)

夸西·宋桂 Kwasi Songui (id:1339534)

本兹·安托万 Benz Antoine (id:1058949)

神奈川宏幸 Hiro Kanagawa (id:1028007)

托妮·伽恩 Toni Garrn (id:1326746)

阿莱恩·古勒姆 Alain Goulem (id:1091375)

莎拉·桑帕约 Sara Sampaio (id:1360933)

道恩·福特 Dawn Ford (id:1397485)

杰森·卡弗利尔 Jason Cavalier (id:1387739)

毛里齐奥·泰拉扎诺 Maurizio Terrazzano (id:1156636)

袁罗素 Russell Yuen (id:1054816)

斯蒂芬妮·科斯塔 Stephanie Costa (id:1397487)

马丁·德普纳 Martin Doepner (id:1090543)

Katie Emme McIninch Katie Emme McIninch (id:1115812)

◎标 签 犯罪 / 美国 / 2021 / 剧情 / 艾米·汉莫 / 惊悚 / 加里·奥德曼 / 美国电影

◎简 介

加里·奥德曼、艾米·汉莫、伊万杰琳·莉莉将主演新惊悚片《幻境》(Dreamland),号称是第一部聚焦国际“鸦片类药物危机”的院线片。已经开拍,将在蒙特利尔和底特律拍摄。

尼古拉斯·亚雷茨基(《套利交易》)执导及编剧,主线为三方故事:一个毒品走私犯安排了一场跨越美国和加拿大、涉及多集团的芬太尼走私行动;一个从奥施康定成瘾中恢复的建筑设计师发现她的儿子跟毒枭有联系事件背后的真相;一个大学教授与他的雇主被曝光的真相作斗争,这家与政府联系很深的药品公司试图把一种“非上瘾”止痛药投入市场。

亚雷茨基称,该片想表现“鸦片类药物滥用危机已经触及到社会的每个角落,影响是毁灭性的”。影片为加拿大-比利时合拍片,会在柏林的欧洲电影交易市场卖片。

  1. ##### MediaInfo ######

  2. General

  3. Unique ID : 231457402622613966594229692544994896149 (0xAE211302729A933BCE6B9CC842C1E915)

  4. Complete name : [email protected]

  5. Format : Matroska

  6. Format version : Version 4

  7. File size : 6.77 GiB

  8. Duration : 1 h 58 min

  9. Overall bit rate : 8 158 kb/s

  10. Movie name : Crisis 2021 1080p BluRay DTS [email protected]

  11. Encoded date : UTC 2021-09-16 01:19:59

  12. Writing application : mkvmerge v38.0.0 ('The Silent Type') 64-bit

  13. Writing library : libebml v1.3.9 + libmatroska v1.5.2


  14. Video

  15. ID : 1

  16. Format : HEVC

  17. Format/Info : High Efficiency Video Coding

  18. Format profile : Main [email protected]@High

  19. Codec ID : V_MPEGH/ISO/HEVC

  20. Duration : 1 h 58 min

  21. Bit rate : 6 597 kb/s

  22. Width : 1 920 pixels

  23. Height : 804 pixels

  24. Display aspect ratio : 2.40:1

  25. Frame rate mode : Constant

  26. Frame rate : 23.976 (24000/1001/53354) FPS

  27. Color space : YUV

  28. Chroma subsampling : 4:2:0

  29. Bit depth : 10 bits

  30. Bits/(Pixel*Frame) : 0.178

  31. Stream size : 5.48 GiB (81%)

  32. Title : [email protected]

  33. Writing library : x265 - H.265/HEVC codec

  34. Default : Yes

  35. Forced : No


  36. Audio

  37. ID : 2

  38. Format : DTS

  39. Format/Info : Digital Theater Systems

  40. Codec ID : A_DTS

  41. Duration : 1 h 58 min

  42. Bit rate mode : Constant

  43. Bit rate : 1 509 kb/s

  44. Channel(s) : 6 channels

  45. Channel layout : C L R Ls Rs LFE

  46. Sampling rate : 48.0 kHz

  47. Frame rate : 93.750 FPS (512 SPF)

  48. Bit depth : 24 bits

  49. Compression mode : Lossy

  50. Stream size : 1.25 GiB (18%)

  51. Title : English

  52. Language : English

  53. Default : Yes

  54. Forced : No


  55. Text #1

  56. ID : 3

  57. Format : PGS

  58. Muxing mode : zlib

  59. Codec ID : S_HDMV/PGS

  60. Codec ID/Info : Picture based subtitle format used on BDs/HD-DVDs

  61. Duration : 1 h 52 min

  62. Bit rate : 31.0 kb/s

  63. Count of elements : 3156

  64. Stream size : 25.1 MiB (0%)

  65. Title : CHS

  66. Language : Chinese

  67. Default : Yes

  68. Forced : No


  69. Text #2

  70. ID : 4

  71. Format : PGS

  72. Muxing mode : zlib

  73. Codec ID : S_HDMV/PGS

  74. Codec ID/Info : Picture based subtitle format used on BDs/HD-DVDs

  75. Duration : 1 h 52 min

  76. Bit rate : 31.9 kb/s

  77. Count of elements : 3156

  78. Stream size : 25.8 MiB (0%)

  79. Title : CHT

  80. Language : Chinese

  81. Default : No

  82. Forced : No


  83. Text #3

  84. ID : 5

  85. Format : PGS

  86. Muxing mode : zlib

  87. Codec ID : S_HDMV/PGS

  88. Codec ID/Info : Picture based subtitle format used on BDs/HD-DVDs

  89. Duration : 1 h 51 min

  90. Bit rate : 57.3 kb/s

  91. Count of elements : 2906

  92. Stream size : 45.8 MiB (1%)

  93. Title : ENG

  94. Language : English

  95. Default : No

  96. Forced : No


  97. Menu

  98. 00:00:00.000 : en:Chapter 01

  99. 00:07:07.594 : en:Chapter 02

  100. 00:16:56.182 : en:Chapter 03

  101. 00:23:30.826 : en:Chapter 04

  102. 00:36:27.769 : en:Chapter 05

  103. 00:43:28.773 : en:Chapter 06

  104. 00:51:16.198 : en:Chapter 07

  105. 01:00:59.114 : en:Chapter 08

  106. 01:09:48.434 : en:Chapter 09

  107. 01:19:27.346 : en:Chapter 10

  108. 01:32:51.483 : en:Chapter 11

  109. 01:43:25.574 : en:Chapter 12


文件下载


除非特别注明,本文『危机[中文字幕].Crisis.2021.1080p.BluRay.DTS.x265-10bit 6.77GB』来源于互联网机器人自动抓取,非本站原创。 浮游电影网不对本文拥有版权,如有侵犯,请联系邮箱:fuyouu#yandex.com[#换成@]投诉。我们会在15个工作日内删除。 但烦请转载时请标明出处:“本文转载于『浮游电影网』,原文地址:https://www.fuyouu.com/14430.html

评论吧骚年!

发表你的见解   

昵称*

E-mail*(建议输入,以便收到博主回复的提示邮件)

验证码*

您可以使用eMule或eMule Mod(Windows)、aMule(Win、Linux、Mac)等软件下载eD2k链接。。
eMule收藏集(.emulecollection)文件是您选中的所有链接的列表文件。eMule可以直接下载它们。
按住SHIFT键选择可以选中多个选择框。
可用文件名和大小选择器来选择文件。
文件名选择器帮您根据文件名称或后缀来选择文件。不分大小写。
符号使用:
和:空格( )、+
不包含:-
或:|
转义:一对英文引号("");
匹配开头:^
匹配结尾:$
例如:
选中所有名称中包含有“eMule”或“0.49c”字眼,但不包含有“exe”字眼的:emule|0.49c -exe
选中所有名称的开头是“eMule”,结尾是“0.49c”的:^emule 0.49c$
选中所有名称中带有“eMule 0.49c”的(必须是“eMule 0.49c”,中间没有别的字符,不能是“eMule fake 0.49c”),需要转义:"emule 0.49c"
大小选择器帮您根据文件大小选择文件。