当前位置: 首页 >> 海外电影 >> 痉挛[中文字幕].Spasmo.1974.1080p.BluRay.DTS.x265-10bit 10.66GB >> 正文

痉挛[中文字幕].Spasmo.1974.1080p.BluRay.DTS.x265-10bit 10.66GB

2021年09月18日 11:50:50     电影发布:来源于网络     电影分类:海外电影     评论(0)    

痉挛[中文字幕].Spasmo.1974.1080p.BluRay.DTS.x265 10bit 10.66GB 悬疑片 恐怖片 动作片 海外电影  第1张

◎译 名 痉挛 / The Death Dealer

◎片 名 Spasmo

◎年 代 1974

◎产 地 意大利

◎类 别 动作 / 悬疑 / 恐怖

◎语 言 英语

◎上映日期 1974-02-16(意大利)

◎IMDb链接 https://www.imdb.com/title/tt0072196/

◎豆瓣评分 5.7/10 (83人评价)

◎豆瓣链接 https://movie.douban.com/subject/2567667/

◎片 长 94分钟

◎导 演 翁贝托·伦齐 Umberto Lenzi (id:1025377)

◎编 剧 马西莫·弗兰乔萨 Massimo Franciosa (id:1025967)

翁贝托·伦齐 Umberto Lenzi (id:1025377)

Luisa Montagnana Luisa Montagnana (id:1053829)

◎演 员 罗伯特·霍夫曼 Robert Hoffmann (id:1098864)

苏茜·肯道尔 Suzy Kendall (id:1014075)

艾凡·拉斯莫夫 Ivan Rassimov (id:1045636)

Adolfo Lastretti Adolfo Lastretti (id:1113024)

德罗热达·铎洛斯 Rosita Torosh (id:1322980)

佛朗哥·席尔瓦 Franco Silva (id:1142156)

玛丽亚·皮娅·康特 Maria Pia Conte (id:1072615)

圭多·阿尔贝蒂 Guido Alberti (id:1058756)

恩尼奥·莫里康内 Ennio Morricone (id:1044688)

Giacomo Caló Carducci Giacomo Caló Carducci (id:1279919)

◎标 签 意大利 / 惊悚 / 恐怖 / giallo / 情色 / 犯罪 / 意大利电影 / Umberto_Lenzi

◎简 介

克里斯蒂安(罗伯特·霍夫曼饰)和他的女朋友正在一个荒芜的海滩上散步,他们发现一具女人的尸体躺在那里。仔细一看发现她还活着。第二天,克里斯蒂安在游艇派对上再次见到她,他们相爱了。后来在附近的一家汽车旅馆,当他们准备一起上床睡觉时,奇怪的事情发生了:一个入侵者闯入并开始殴打克里斯蒂安,克里斯蒂安不小心用自己的枪向他开枪。几个小时后,他们发现尸体失踪,并发生了一系列奇怪的事件。

  1. ##### MediaInfo ######

  2. General

  3. Unique ID : 13856821296909060750376858388014415607 (0xA6CBA0977DF1384A5974719CDB1BEF7)

  4. Complete name : [email protected]

  5. Format : Matroska

  6. Format version : Version 4

  7. File size : 10.7 GiB

  8. Duration : 1 h 34 min

  9. Overall bit rate : 16.2 Mb/s

  10. Movie name : Spasmo 1974 1080p BluRay DTS [email protected]

  11. Encoded date : UTC 2021-09-16 04:16:46

  12. Writing application : mkvmerge v38.0.0 ('The Silent Type') 64-bit

  13. Writing library : libebml v1.3.9 + libmatroska v1.5.2

  14. Video

  15. ID : 1

  16. Format : HEVC

  17. Format/Info : High Efficiency Video Coding

  18. Format profile : Main [email protected]@High

  19. Codec ID : V_MPEGH/ISO/HEVC

  20. Duration : 1 h 34 min

  21. Bit rate : 14.7 Mb/s

  22. Width : 1 920 pixels

  23. Height : 812 pixels

  24. Display aspect ratio : 2.35:1

  25. Frame rate mode : Constant

  26. Frame rate : 23.976 (24000/1001/53354) FPS

  27. Color space : YUV

  28. Chroma subsampling : 4:2:0

  29. Bit depth : 10 bits

  30. Bits/(Pixel*Frame) : 0.393

  31. Stream size : 9.65 GiB (91%)

  32. Title : @HDSky

  33. Writing library : x265 - H.265/HEVC codec

  34. Default : Yes

  35. Forced : No

  36. Audio

  37. ID : 2

  38. Format : DTS

  39. Format/Info : Digital Theater Systems

  40. Codec ID : A_DTS

  41. Duration : 1 h 34 min

  42. Bit rate mode : Constant

  43. Bit rate : 1 509 kb/s

  44. Channel(s) : 2 channels

  45. Channel layout : L R

  46. Sampling rate : 48.0 kHz

  47. Frame rate : 93.750 FPS (512 SPF)

  48. Bit depth : 24 bits

  49. Compression mode : Lossy

  50. Stream size : 1 015 MiB (9%)

  51. Title : English

  52. Language : English

  53. Default : Yes

  54. Forced : No

  55. Text #1

  56. ID : 3

  57. Format : PGS

  58. Muxing mode : zlib

  59. Codec ID : S_HDMV/PGS

  60. Codec ID/Info : Picture based subtitle format used on BDs/HD-DVDs

  61. Duration : 1 h 32 min

  62. Bit rate : 26.4 kb/s

  63. Count of elements : 1180

  64. Stream size : 17.5 MiB (0%)

  65. Title : CHS

  66. Language : Chinese

  67. Default : Yes

  68. Forced : No

  69. Text #2

  70. ID : 4

  71. Format : PGS

  72. Muxing mode : zlib

  73. Codec ID : S_HDMV/PGS

  74. Codec ID/Info : Picture based subtitle format used on BDs/HD-DVDs

  75. Duration : 1 h 32 min

  76. Bit rate : 27.0 kb/s

  77. Count of elements : 1180

  78. Stream size : 18.0 MiB (0%)

  79. Title : CHT

  80. Language : Chinese

  81. Default : No

  82. Forced : No

  83. Menu

  84. 00:00:00.000 : en:Chapter 01

  85. 00:10:52.151 : en:Chapter 02

  86. 00:20:10.042 : en:Chapter 03

  87. 00:31:49.407 : en:Chapter 04

  88. 00:42:14.699 : en:Chapter 05

  89. 00:51:23.163 : en:Chapter 06

  90. 01:00:52.774 : en:Chapter 07

  91. 01:12:09.992 : en:Chapter 08

  92. 01:23:09.985 : en:Chapter 09


文件下载


除非特别注明,本文『痉挛[中文字幕].Spasmo.1974.1080p.BluRay.DTS.x265-10bit 10.66GB』来源于互联网机器人自动抓取,非本站原创。 浮游电影网不对本文拥有版权,如有侵犯,请联系邮箱:fuyouu#yandex.com[#换成@]投诉。我们会在15个工作日内删除。 但烦请转载时请标明出处:“本文转载于『浮游电影网』,原文地址:https://www.fuyouu.com/14429.html

评论吧骚年!

发表你的见解   

昵称*

E-mail*(建议输入,以便收到博主回复的提示邮件)

验证码*

您可以使用eMule或eMule Mod(Windows)、aMule(Win、Linux、Mac)等软件下载eD2k链接。。
eMule收藏集(.emulecollection)文件是您选中的所有链接的列表文件。eMule可以直接下载它们。
按住SHIFT键选择可以选中多个选择框。
可用文件名和大小选择器来选择文件。
文件名选择器帮您根据文件名称或后缀来选择文件。不分大小写。
符号使用:
和:空格( )、+
不包含:-
或:|
转义:一对英文引号("");
匹配开头:^
匹配结尾:$
例如:
选中所有名称中包含有“eMule”或“0.49c”字眼,但不包含有“exe”字眼的:emule|0.49c -exe
选中所有名称的开头是“eMule”,结尾是“0.49c”的:^emule 0.49c$
选中所有名称中带有“eMule 0.49c”的(必须是“eMule 0.49c”,中间没有别的字符,不能是“eMule fake 0.49c”),需要转义:"emule 0.49c"
大小选择器帮您根据文件大小选择文件。