当前位置: 首页 >> 欧美电影 >> 美国派[中文字幕].American.Pie.1999.UNRATED.1080p.BluRay.x265.10bit.DTS 6.52GB >> 正文

美国派[中文字幕].American.Pie.1999.UNRATED.1080p.BluRay.x265.10bit.DTS 6.52GB

2021年09月18日 11:48:50     电影发布:来源于网络     电影分类:欧美电影     评论(0)    

美国派[中文字幕].American.Pie.1999.UNRATED.1080p.BluRay.x265.10bit.DTS 6.52GB 爱情片 喜剧片 欧美电影  第1张

◎译 名 美国派 / 美国陷饼 / 美国处男 / East Great Falls High

◎片 名 American Pie

◎年 代 1999

◎产 地 美国

◎类 别 喜剧 / 爱情

◎语 言 英语

◎上映日期 1999-07-09(美国)

◎IMDb链接 https://www.imdb.com/title/tt0163651/

◎豆瓣评分 7.4/10 (84758人评价)

◎豆瓣链接 https://movie.douban.com/subject/1295253/

◎片 长 95 分钟

◎导 演 克里斯·韦兹 Chris Weitz (id:1036524)

保罗·韦兹 Paul Weitz (id:1300655)

◎编 剧 亚当·赫兹 Adam Herz (id:1050147)

◎演 员 贾森·比格斯 Jason Biggs (id:1044878)

克里斯·克莱因 Chris Klein (id:1031796)

西恩·威廉·斯科特 Seann William Scott (id:1027153)

托马斯·伊恩·尼古拉斯 Thomas Ian Nicholas (id:1009314)

艾丽森·汉妮根 Alyson Hannigan (id:1000009)

莎诺·伊丽莎白 Shannon Elizabeth (id:1049524)

塔拉·雷德 Tara Reid (id:1040532)

艾迪·凯伊·托马斯 Eddie Kaye Thomas (id:1041146)

尤金·列维 Eugene Levy (id:1036438)

娜塔莎·雷昂 Natasha Lyonne (id:1000096)

米娜·苏瓦丽 Mena Suvari (id:1004579)

詹妮佛·库里奇 Jennifer Coolidge (id:1049511)

克里斯·欧文 Chris Owen (id:1027871)

埃里克·里夫利 Eric Lively (id:1022672)

莫莉·曲克 Molly Cheek (id:1032342)

约翰·赵 John Cho (id:1019015)

艾力·马伦斯奥 Eli Marienthal (id:1032174)

劳伦斯·普莱斯曼 Lawrence Pressman (id:1010746)

克里斯蒂娜·米利安 Christina Milian (id:1027246)

卡西·阿弗莱克 Casey Affleck (id:1022593)

琳达·格赫林格 Linda Gehringer (id:1329755)

路易斯·小泽·张简 Louis Ozawa Changchien (id:1324430)

华伦·仔德 Warren Zide (id:1435379)

克雷格·佩里 Craig Perry (id:1435380)

克里斯·摩尔 Chris Moore (id:1292395)

David Lawrence David Lawrence (id:1289554)

约瑟夫·米德尔顿 Joseph Middleton (id:1292006)

Paul Peters Paul Peters (id:1294388)

沃尼·欣克尔 Voni Hinkle (id:1286673)

沙里·佩里 Shari Perry (id:1294328)

托德·瓦兹里 Todd Vaziri (id:1299925)

帕特里克·奥沙利文 Patrick O'Sullivan (id:1293446)

◎标 签 喜剧 / 美国 / 青春 / 性 / 美国派 / 搞笑 / 美国电影 / 1999

◎简 介

四个美国大男孩吉姆(贾森?比格斯 Jason Biggs 饰)、凯文(托马斯?伊恩?尼古拉斯 Thomas Ian Nicholas饰 )、芬奇(艾迪?凯伊?托马斯 Eddie Kaye Thomas 饰)、奥兹(克里斯?克莱因 Chris Klein 饰)即将高中毕业,但四人都还是愣头青(处男)。四人因此遭人嘲笑,他们亦耿耿于怀,发誓在毕业前要告别处男。

他们在毕业晚会前就举办了一场派对,企图在派队上找到自己的女孩,告别处男之身。谁知告别处男并没有想象中简单,也没有按设想进行,他们总是在最后关头因为这样那样的原因而失去机会。

毕业晚会即将到来,这是他们毕业前的最后一次机会了,四人又开始加紧准备步伐。怀揣着父亲教授的一套性知识的吉姆,最喜欢看图书馆性爱“圣经”的凯文,最喜欢大龄女人的芬奇,还有多才多艺的奥兹,在这场派队中纷纷为自己的誓言而奋斗,于是有...

  1. ##### MediaInfo ######

  2. General

  3. Unique ID : 19931472045642610145527053828312458139 (0xEFEA97148F633AB7FCE07FEE8F6E39B)

  4. Complete name : [email protected]DQ.COM.mkv

  5. Format : Matroska

  6. Format version : Version 4

  7. File size : 6.52 GiB

  8. Duration : 1 h 35 min

  9. Overall bit rate : 9 764 kb/s

  10. Encoded date : UTC 2021-09-16 11:10:27

  11. Writing application : mkvmerge v56.1.0 ('My Friend') 64-bit

  12. Writing library : libebml v1.4.2 + libmatroska v1.6.4


  13. Video

  14. ID : 1

  15. Format : HEVC

  16. Format/Info : High Efficiency Video Coding

  17. Format profile : Main [email protected]@Main

  18. Codec ID : V_MPEGH/ISO/HEVC

  19. Duration : 1 h 35 min

  20. Bit rate : 8 162 kb/s

  21. Width : 1 920 pixels

  22. Height : 1 040 pixels

  23. Display aspect ratio : 1.85:1

  24. Frame rate mode : Constant

  25. Frame rate : 23.976 (24000/1001/53354) FPS

  26. Color space : YUV

  27. Chroma subsampling : 4:2:0

  28. Bit depth : 10 bits

  29. Bits/(Pixel*Frame) : 0.170

  30. Stream size : 5.45 GiB (84%)

  31. Writing library : x265 3.5+2-g2b25c9ba0+45:[Windows][GCC 10.2.0][64 bit] Yuuki 10bit+8bit+12bit

  32. Encoding settings : rc=crf / crf=18.0000 / qcomp=0.70 / qpstep=4 / stats-write=0 / stats-read=0 / no-lossless / no-cu-lossless / aq-mode=3 / aq-strength=0.80 / cbqpoffs=0 / crqpoffs=0 / ipratio=1.40 / pbratio=1.30 / psy-rd=2.00 / psy-rdoq=0.00 / deblock=0:0 / ref=6 / limit-refs=1 / no-limit-modes / bframes=9 / b-adapt=2 / bframe-bias=0 / b-pyramid / b-intra / weightp / weightb / min-keyint=24 / max-keyint=240 / rc-lookahead=24 / gop-lookahead=0 / NTMzNTQ=uuDQuD2mJt9fsCf / scenecut=40 / hist-scenecut=0 / radl=0 / max-cu-size=64 / min-cu-size=8 / me=3 / subme=7 / merange=48 / rdoq-level=0 / rd=4 / rdpenalty=0 / dynamic-rd=0.00 / no-rd-refine / ----- / cutree / sao / no-rect / no-amp / no-open-gop / wpp / no-pmode / no-pme / no-psnr / no-ssim / nr-intra=0 / nr-inter=0 / no-constrained-intra / no-strong-intra-smoothing / max-tu-size=32 / tu-inter-depth=1 / tu-intra-depth=1 / limit-tu=0 / qg-size=32 / qpmax=69 / qpmin=0 / ----- / cpuid=533541111039 / frame-threads=4 / numa-pools=+ / log-level=2 / input-csp=1 / input-res=1920x1040 / interlace=0 / level-idc=0 / high-tier=1 / uhd-bd=0 / no-allow-non-conformance / no-repeat-headers / aud / no-hrd / info / hash=0 / no-temporal-layers / lookahead-slices=0 / no-splice / no-intra-refresh / no-ssim-rd / signhide / no-tskip / max-merge=3 / temporal-mvp / no-frame-dup / no-hme / no-analyze-src-pics / no-sao-non-deblock / selective-sao=4 / early-skip / rskip / no-fast-intra / no-tskip-fast / no-splitrd-skip / zone-count=0 / no-strict-cbr / no-rc-grain / no-const-vbv / sar=0 / overscan=0 / videoformat=5 / range=0 / colorprim=2 / transfer=2 / colormatrix=2 / chromaloc=0 / display-window=0 / cll=0,0 / min-luma=0 / max-luma=1023 / log2-max-poc-lsb=8 / vui-timing-info / vui-hrd-info / slices=1 / no-opt-qp-pps / no-opt-ref-list-length-pps / no-multi-pass-opt-rps / scenecut-bias=0.05 / hist-threshold=0.03 / no-opt-cu-delta-qp / no-aq-motion / no-hdr10 / no-hdr10-opt / no-dhdr10-opt / no-idr-recovery-sei / analysis-reuse-level=0 / analysis-save-reuse-level=0 / analysis-load-reuse-level=0 / scale-factor=0 / refine-intra=0 / refine-inter=0 / refine-mv=1 / refine-ctu-distortion=0 / no-limit-sao / ctu-info=0 / no-lowpass-dct / refine-analysis-type=0 / copy-pic=1 / max-ausize-factor=1.0 / no-dynamic-refine / no-single-sei / no-hevc-aq / no-svt / no-field / qp-adaptation-range=1.00 / scenecut-aware-qp=0conformance-window-offsets / right=0 / bottom=0 / NTMzNTQ= / decoder-max-rate=0 / no-vbv-live-multi-pass

  33. Default : Yes

  34. Forced : No


  35. Audio

  36. ID : 2

  37. Format : DTS

  38. Format/Info : Digital Theater Systems

  39. Codec ID : A_DTS

  40. Duration : 1 h 35 min

  41. Bit rate mode : Constant

  42. Bit rate : 1 509 kb/s

  43. Channel(s) : 6 channels

  44. Channel layout : C L R Ls Rs LFE

  45. Sampling rate : 48.0 kHz

  46. Frame rate : 93.750 FPS (512 SPF)

  47. Bit depth : 24 bits

  48. Compression mode : Lossy

  49. Stream size : 1.01 GiB (15%)

  50. Title : eng

  51. Language : English

  52. Default : Yes

  53. Forced : No


  54. Text #1

  55. ID : 3

  56. Format : PGS

  57. Muxing mode : zlib

  58. Codec ID : S_HDMV/PGS

  59. Codec ID/Info : Picture based subtitle format used on BDs/HD-DVDs

  60. Duration : 1 h 31 min

  61. Bit rate : 56.2 kb/s

  62. Count of elements : 2238

  63. Stream size : 36.7 MiB (1%)

  64. Title : chs&eng

  65. Language : Chinese

  66. Default : Yes

  67. Forced : No


  68. Text #2

  69. ID : 4

  70. Format : PGS

  71. Muxing mode : zlib

  72. Codec ID : S_HDMV/PGS

  73. Codec ID/Info : Picture based subtitle format used on BDs/HD-DVDs

  74. Duration : 1 h 31 min

  75. Bit rate : 56.5 kb/s

  76. Count of elements : 2238

  77. Stream size : 36.9 MiB (1%)

  78. Title : cht&eng

  79. Language : Chinese

  80. Default : No

  81. Forced : No


  82. Text #3

  83. ID : 5

  84. Format : PGS

  85. Muxing mode : zlib

  86. Codec ID : S_HDMV/PGS

  87. Codec ID/Info : Picture based subtitle format used on BDs/HD-DVDs

  88. Duration : 1 h 31 min

  89. Bit rate : 27.7 kb/s

  90. Count of elements : 2238

  91. Stream size : 18.1 MiB (0%)

  92. Title : chs

  93. Language : Chinese

  94. Default : No

  95. Forced : No


  96. Text #4

  97. ID : 6

  98. Format : PGS

  99. Muxing mode : zlib

  100. Codec ID : S_HDMV/PGS

  101. Codec ID/Info : Picture based subtitle format used on BDs/HD-DVDs

  102. Duration : 1 h 31 min

  103. Bit rate : 28.0 kb/s

  104. Count of elements : 2238

  105. Stream size : 18.3 MiB (0%)

  106. Title : cht

  107. Language : Chinese

  108. Default : No

  109. Forced : No


  110. Text #5

  111. ID : 7

  112. Format : PGS

  113. Muxing mode : zlib

  114. Codec ID : S_HDMV/PGS

  115. Codec ID/Info : Picture based subtitle format used on BDs/HD-DVDs

  116. Duration : 1 h 35 min

  117. Bit rate : 51.2 kb/s

  118. Count of elements : 3339

  119. Stream size : 34.8 MiB (1%)

  120. Title : eng

  121. Language : English

  122. Default : No

  123. Forced : No


  124. Menu

  125. 00:00:00.000 : 第 01 章

  126. 00:01:38.932 : 第 02 章

  127. 00:04:00.323 : 第 03 章

  128. 00:06:19.128 : 第 04 章

  129. 00:12:19.780 : 第 05 章

  130. 00:16:48.549 : 第 06 章

  131. 00:24:08.238 : 第 07 章

  132. 00:27:53.755 : 第 08 章

  133. 00:31:33.057 : 第 09 章

  134. 00:35:52.441 : 第 10 章

  135. 00:42:46.689 : 第 11 章

  136. 01:00:11.399 : 第 12 章

  137. 01:03:41.359 : 第 13 章

  138. 01:07:41.724 : 第 14 章

  139. 01:11:02.383 : 第 15 章

  140. 01:16:47.436 : 第 16 章

  141. 01:27:13.770 : 第 17 章

  142. 01:31:27.440 : 第 18 章


文件下载


除非特别注明,本文『美国派[中文字幕].American.Pie.1999.UNRATED.1080p.BluRay.x265.10bit.DTS 6.52GB』来源于互联网机器人自动抓取,非本站原创。 浮游电影网不对本文拥有版权,如有侵犯,请联系邮箱:fuyouu#yandex.com[#换成@]投诉。我们会在15个工作日内删除。 但烦请转载时请标明出处:“本文转载于『浮游电影网』,原文地址:https://www.fuyouu.com/14428.html

评论吧骚年!

发表你的见解   

昵称*

E-mail*(建议输入,以便收到博主回复的提示邮件)

验证码*

您可以使用eMule或eMule Mod(Windows)、aMule(Win、Linux、Mac)等软件下载eD2k链接。。
eMule收藏集(.emulecollection)文件是您选中的所有链接的列表文件。eMule可以直接下载它们。
按住SHIFT键选择可以选中多个选择框。
可用文件名和大小选择器来选择文件。
文件名选择器帮您根据文件名称或后缀来选择文件。不分大小写。
符号使用:
和:空格( )、+
不包含:-
或:|
转义:一对英文引号("");
匹配开头:^
匹配结尾:$
例如:
选中所有名称中包含有“eMule”或“0.49c”字眼,但不包含有“exe”字眼的:emule|0.49c -exe
选中所有名称的开头是“eMule”,结尾是“0.49c”的:^emule 0.49c$
选中所有名称中带有“eMule 0.49c”的(必须是“eMule 0.49c”,中间没有别的字符,不能是“eMule fake 0.49c”),需要转义:"emule 0.49c"
大小选择器帮您根据文件大小选择文件。