当前位置: 首页 >> 港台电影 >> 黄飞鸿之鬼脚七[国语配音/中文字幕].Kick.Boxer.1993.HDTV.1080i.H.264.DD.2.0.&.MPEG.Audio.2.0 5.33GB >> 正文

黄飞鸿之鬼脚七[国语配音/中文字幕].Kick.Boxer.1993.HDTV.1080i.H.264.DD.2.0.&.MPEG.Audio.2.0 5.33GB

2021年09月17日 08:28:45     电影发布:来源于网络     电影分类:港台电影     评论(0)    

黄飞鸿之鬼脚七[国语配音/中文字幕].Kick.Boxer.1993.HDTV.1080i.H.264.DD.2.0.&.MPEG.Audio.2.0 5.33GB 动作片 港台电影  第1张

◎译 名 黄飞鸿之鬼脚七 / Wong Fei Hung Ji Gwai Geuk Chat / Kick Boxer

◎片 名 黃飛鴻之鬼腳七

◎年 代 1993

◎产 地 中国香港

◎类 别 动作

◎语 言 粤语 / 汉语普通话

◎上映日期 1993-02-06

◎IMDb链接 https://www.imdb.com/title/tt0107056/

◎豆瓣评分 6.4/10 (2012人评价)

◎豆瓣链接 https://movie.douban.com/subject/2338220/

◎片 长 93分钟

◎导 演 午马 Wu Ma (id:1054282)

◎编 剧 李敏才 Man Choi Lee (id:1326368)

◎演 员 午马 Wu Ma (id:1054282)

元彪 Biao Yuen (id:1163752)

元华 Wah Yuen (id:1050240)

吕秀菱 Hsiu-ling Lu (id:1124212)

田村由香里 Yukari Tamura (id:1033407)

元武 Wu Yuan (id:1344878)

关顺田 Shuntian Guan (id:1415810)

姜全德 Chuen Tak Keung (id:1377204)

太保 Po Tai (id:1312993)

任世官 Shi-Kwan Yen (id:1165667)

陈淑兰 Sheila Chan (id:1314841)

黄仲标 Bill Wong (id:1301175)

姜全德 Chuen Tak Keung (id:1377204)

◎标 签 动作 / 香港 / 香港电影 / 武侠 / 元彪 / 午马 / 1993 / 元华

◎简 介

人称鬼脚七的刘七(元彪 饰)本是大户人家出身的浪荡子弟,经牙擦苏(午马 饰)引荐,刘七得以加入宝芝林拜黄飞鸿为师,在前往广州拜师的轮船上,刘七见外国人仗势欺人出手教训,因此结识了报馆记者小菱(吕秀菱 饰)。在同一艘船上,刘七昔日的把兄弟沙胆明将鸦片藏在宝芝林药材中逃避检查,其时广州在管带金豹(任世官 饰)等官员治下大力禁烟,华商会长(元华 饰)与沙胆明一伙暗中经营鸦片,官商双方围绕鸦片斗智斗勇,将宝芝林卷入其中。自刘七加入宝芝林以来,众师兄弟感到麻烦不断,虽一再容忍但还是将刘七逐出了宝芝林。刘七满心愤懑,当得悉小菱与金豹是父女关系后,他决定联合金豹,打入华会长一伙,为自己雪耻……

  1. ##### MediaInfo ######

  2. General

  3. ID : 1024 (0x400)

  4. Complete name : Kick Boxer 1993 HDTV 1080i H.264 DD 2.0 & MPEG Audio [email protected]

  5. Format : MPEG-TS

  6. File size : 5.33 GiB

  7. Duration : 1 h 33 min

  8. Overall bit rate mode : Variable

  9. Overall bit rate : 8 196 kb/s


  10. Video

  11. ID : 105 (0x69)

  12. Menu ID : 2405 (0x965)

  13. Format : AVC

  14. Format/Info : Advanced Video Codec

  15. Format profile : [email protected]

  16. Format settings : CABAC / 4 Ref Frames

  17. Format settings, CABAC : Yes

  18. Format settings, Reference frames : 4 frames

  19. Codec ID : 27

  20. Duration : 1 h 33 min

  21. Bit rate : 7 339 kb/s

  22. Width : 1 920 pixels

  23. Height : 1 080 pixels

  24. Display aspect ratio : 16:9

  25. Frame rate : 25.000 FPS

  26. Color space : YUV

  27. Chroma subsampling : 4:2:0

  28. Bit depth : 8 bits

  29. Scan type : MBAFF

  30. Scan type, store method : Interleaved fields

  31. Scan order : Top Field First

  32. Bits/(Pixel*Frame) : 0.142

  33. Stream size : 4.77 GiB (90%)


  34. Audio #1

  35. ID : 221 (0xDD)

  36. Menu ID : 2405 (0x965)

  37. Format : AC-3

  38. Format/Info : Audio Coding 3

  39. Commercial name : Dolby Digital

  40. Codec ID : 6

  41. Duration : 1 h 33 min

  42. Bit rate mode : Constant

  43. Bit rate : 256 kb/s

  44. Channel(s) : 2 channels

  45. Channel layout : L R

  46. Sampling rate : 48.0 kHz

  47. Frame rate : 31.250 FPS (1536 SPF)

  48. Compression mode : Lossy

  49. Delay relative to video : -3 ms

  50. Stream size : 170 MiB (3%)

  51. Language : English

  52. Service kind : Complete Main


  53. Audio #2

  54. ID : 222 (0xDE)

  55. Menu ID : 2405 (0x965)

  56. Format : MPEG Audio

  57. Format version : Version 1

  58. Format profile : Layer 2

  59. Format settings : Joint stereo / Intensity Stereo + MS Stereo

  60. Codec ID : 3

  61. Duration : 1 h 33 min

  62. Bit rate mode : Constant

  63. Bit rate : 192 kb/s

  64. Channel(s) : 2 channels

  65. Sampling rate : 48.0 kHz

  66. Frame rate : 41.667 FPS (1152 SPF)

  67. Compression mode : Lossy

  68. Delay relative to video : -2 ms

  69. Stream size : 128 MiB (2%)

  70. Language : English


  71. Menu

  72. ID : 55 (0x37)

  73. Menu ID : 2405 (0x965)

  74. Duration : 1 h 33 min

  75. List : 105 (0x69) (AVC) / 221 (0xDD) (AC-3, English) / 222 (0xDE) (MPEG Audio, English)

  76. Language : / English / English




文件下载


除非特别注明,本文『黄飞鸿之鬼脚七[国语配音/中文字幕].Kick.Boxer.1993.HDTV.1080i.H.264.DD.2.0.&.MPEG.Audio.2.0 5.33GB』来源于互联网机器人自动抓取,非本站原创。 浮游电影网不对本文拥有版权,如有侵犯,请联系邮箱:fuyouu#yandex.com[#换成@]投诉。我们会在15个工作日内删除。 但烦请转载时请标明出处:“本文转载于『浮游电影网』,原文地址:https://www.fuyouu.com/14421.html

评论吧骚年!

发表你的见解   

昵称*

E-mail*(建议输入,以便收到博主回复的提示邮件)

验证码*

您可以使用eMule或eMule Mod(Windows)、aMule(Win、Linux、Mac)等软件下载eD2k链接。。
eMule收藏集(.emulecollection)文件是您选中的所有链接的列表文件。eMule可以直接下载它们。
按住SHIFT键选择可以选中多个选择框。
可用文件名和大小选择器来选择文件。
文件名选择器帮您根据文件名称或后缀来选择文件。不分大小写。
符号使用:
和:空格( )、+
不包含:-
或:|
转义:一对英文引号("");
匹配开头:^
匹配结尾:$
例如:
选中所有名称中包含有“eMule”或“0.49c”字眼,但不包含有“exe”字眼的:emule|0.49c -exe
选中所有名称的开头是“eMule”,结尾是“0.49c”的:^emule 0.49c$
选中所有名称中带有“eMule 0.49c”的(必须是“eMule 0.49c”,中间没有别的字符,不能是“eMule fake 0.49c”),需要转义:"emule 0.49c"
大小选择器帮您根据文件大小选择文件。