当前位置: 首页 >> 港台电影 >> 给爸爸的信[国语配音/中文字幕].My.Father.Is.A.Hero.1995.HDTV.1080i.H.264.DD.2.0.&.MPEG.Audio.2.0 4.99GB >> 正文

给爸爸的信[国语配音/中文字幕].My.Father.Is.A.Hero.1995.HDTV.1080i.H.264.DD.2.0.&.MPEG.Audio.2.0 4.99GB

2021年09月17日 08:26:39     电影发布:来源于网络     电影分类:港台电影     评论(0)    

给爸爸的信[国语配音/中文字幕].My.Father.Is.A.Hero.1995.HDTV.1080i.H.264.DD.2.0.&.MPEG.Audio.2.0 4.99GB 犯罪片 动作片 剧情片 港台电影  第1张

◎译 名 给爸爸的信 / 赤子威龙 / 父子武状元 / My Father Is A Hero

◎片 名 給爸爸的信

◎年 代 1995

◎产 地 中国香港 / 中国大陆

◎类 别 剧情 / 动作 / 犯罪

◎语 言 粤语 / 汉语普通话

◎上映日期 1995-02-18

◎IMDb链接 https://www.imdb.com/title/tt0113153/

◎豆瓣评分 7.9/10 (62151人评价)

◎豆瓣链接 https://movie.douban.com/subject/1299250/

◎片 长 104分钟

◎导 演 元奎 Corey Yuen (id:1289150)

◎编 剧 王晶 Jing Wong (id:1274331)

◎演 员 李连杰 Jet Li (id:1025146)

梅艳芳 Anita Mui (id:1047976)

谢苗 Miu Tse (id:1314627)

于荣光 Ringo Yu (id:1274556)

刘松仁 Damian Lau (id:1028689)

柯受良 Sau Leung 'Blacky' Ko (id:1315099)

邹兆龙 Collin Chou (id:1022821)

元奎 Corey Yuen (id:1289150)

卢惠光 Ken Lo (id:1032633)

方平 Henry Fong (id:1312822)

符钰晶 Bonnie Fu (id:1324690)

托斯顿·尼克尔 Thorsten Nickel (id:1127702)

Tom Konkle Tom Konkle (id:1193131)

迈克尔·索里奇 Michael Sorich (id:1157078)

保罗·拉波夫斯基 Paul Rapovski (id:1146560)

Dean Scofield Dean Scofield (id:1146466)

Evan Cohen Evan Cohen (id:1078165)

大卫格拉夫 David Graf (id:1094009)

德里克·麦克加特 Derek McGrath (id:1122324)

丸山凯伦 Karen Maruyama (id:1123147)

Arianna Ratner Arianna Ratner (id:1138584)

马丁·斯潘尼尔斯 Martin Spanjers (id:1004759)

韩春 Chun Han (id:1418677)

雷颂德 Mark Lui (id:1052286)

林安儿 Angie Lam (id:1038152)

Skip Williams Skip Williams (id:1300993)

元德 Tak Yuen (id:1287153)

罗礼贤 Bruce Law (id:1289542)

◎标 签 李连杰 / 动作 / 香港 / 香港电影 / 梅艳芳 / 1995 / 给爸爸的信 / 元奎

◎简 介

大陆卧底公安巩伟(李连杰 饰)因工作关系,不能给与重病的妻子更多照顾,也不能为懂事又武艺高强的儿子巩固(谢苗 饰)提供更多关怀,在妻儿急需要他的时候,巩伟因上司的命令,假扮罪犯,和大陆抓获的香港黑道分子小黑(柯受良 饰)一同逃跑,踏上了远赴香港甫光(于荣光 饰)团伙卧底的旅途。巩伟与甫光团伙在炸弹交易中黑吃黑,混战中搭救了香港督查方逸华(梅艳芳 饰),并凭借出色身手得到了甫光的信任。方逸华来到北京调查巩伟身份,获知真相,并在巩妻去世后带领巩固至香港寻父,方逸华上司将巩伟巩固父子身份暴露,使巩伟处境危险,而此刻甫光策划的拍卖抢劫行动亦迫在眉睫……

◎获奖情况 (共2项)

第32届台北金马影展 (1995)

金马奖 最佳动作设计(提名)

第15届香港电影金像奖 (1996)

最佳动作设计(提名)

  1. ##### MediaInfo ######

  2. General

  3. ID : 1024 (0x400)

  4. Complete name : My Father Is A Hero 1995 HDTV 1080i H.264 DD 2.0 & MPEG Audio [email protected]

  5. Format : MPEG-TS

  6. File size : 4.99 GiB

  7. Duration : 1 h 27 min

  8. Overall bit rate mode : Variable

  9. Overall bit rate : 8 197 kb/s


  10. Video

  11. ID : 105 (0x69)

  12. Menu ID : 2405 (0x965)

  13. Format : AVC

  14. Format/Info : Advanced Video Codec

  15. Format profile : [email protected]

  16. Format settings : CABAC / 4 Ref Frames

  17. Format settings, CABAC : Yes

  18. Format settings, Reference frames : 4 frames

  19. Format settings, GOP : M=4, N=32

  20. Codec ID : 27

  21. Duration : 1 h 27 min

  22. Bit rate : 7 340 kb/s

  23. Width : 1 920 pixels

  24. Height : 1 080 pixels

  25. Display aspect ratio : 16:9

  26. Frame rate : 25.000 FPS

  27. Color space : YUV

  28. Chroma subsampling : 4:2:0

  29. Bit depth : 8 bits

  30. Scan type : MBAFF

  31. Scan type, store method : Interleaved fields

  32. Scan order : Top Field First

  33. Bits/(Pixel*Frame) : 0.142

  34. Stream size : 4.46 GiB (90%)


  35. Audio #1

  36. ID : 221 (0xDD)

  37. Menu ID : 2405 (0x965)

  38. Format : AC-3

  39. Format/Info : Audio Coding 3

  40. Commercial name : Dolby Digital

  41. Codec ID : 6

  42. Duration : 1 h 27 min

  43. Bit rate mode : Constant

  44. Bit rate : 256 kb/s

  45. Channel(s) : 2 channels

  46. Channel layout : L R

  47. Sampling rate : 48.0 kHz

  48. Frame rate : 31.250 FPS (1536 SPF)

  49. Compression mode : Lossy

  50. Delay relative to video : 161 ms

  51. Stream size : 159 MiB (3%)

  52. Language : English

  53. Service kind : Complete Main


  54. Audio #2

  55. ID : 222 (0xDE)

  56. Menu ID : 2405 (0x965)

  57. Format : MPEG Audio

  58. Format version : Version 1

  59. Format profile : Layer 2

  60. Format settings : Joint stereo / Intensity Stereo + MS Stereo

  61. Codec ID : 3

  62. Duration : 1 h 27 min

  63. Bit rate mode : Constant

  64. Bit rate : 192 kb/s

  65. Channel(s) : 2 channels

  66. Sampling rate : 48.0 kHz

  67. Frame rate : 41.667 FPS (1152 SPF)

  68. Compression mode : Lossy

  69. Delay relative to video : 122 ms

  70. Stream size : 120 MiB (2%)

  71. Language : English


  72. Menu

  73. ID : 55 (0x37)

  74. Menu ID : 2405 (0x965)

  75. Duration : 1 h 27 min

  76. List : 105 (0x69) (AVC) / 221 (0xDD) (AC-3, English) / 222 (0xDE) (MPEG Audio, English)

  77. Language : / English / English


文件下载


除非特别注明,本文『给爸爸的信[国语配音/中文字幕].My.Father.Is.A.Hero.1995.HDTV.1080i.H.264.DD.2.0.&.MPEG.Audio.2.0 4.99GB』来源于互联网机器人自动抓取,非本站原创。 浮游电影网不对本文拥有版权,如有侵犯,请联系邮箱:fuyouu#yandex.com[#换成@]投诉。我们会在15个工作日内删除。 但烦请转载时请标明出处:“本文转载于『浮游电影网』,原文地址:https://www.fuyouu.com/14420.html

评论吧骚年!

发表你的见解   

昵称*

E-mail*(建议输入,以便收到博主回复的提示邮件)

验证码*

您可以使用eMule或eMule Mod(Windows)、aMule(Win、Linux、Mac)等软件下载eD2k链接。。
eMule收藏集(.emulecollection)文件是您选中的所有链接的列表文件。eMule可以直接下载它们。
按住SHIFT键选择可以选中多个选择框。
可用文件名和大小选择器来选择文件。
文件名选择器帮您根据文件名称或后缀来选择文件。不分大小写。
符号使用:
和:空格( )、+
不包含:-
或:|
转义:一对英文引号("");
匹配开头:^
匹配结尾:$
例如:
选中所有名称中包含有“eMule”或“0.49c”字眼,但不包含有“exe”字眼的:emule|0.49c -exe
选中所有名称的开头是“eMule”,结尾是“0.49c”的:^emule 0.49c$
选中所有名称中带有“eMule 0.49c”的(必须是“eMule 0.49c”,中间没有别的字符,不能是“eMule fake 0.49c”),需要转义:"emule 0.49c"
大小选择器帮您根据文件大小选择文件。