当前位置: 首页 >> 国产电影 >> 黄飞鸿之四:王者之风[国语配音/中文字幕].Once.Upon.a.Time.in.China.IV.1993.HDTV.1080i.H.264.DD.2.0.&.MPEG.Audio.2.0 5.5 >> 正文

黄飞鸿之四:王者之风[国语配音/中文字幕].Once.Upon.a.Time.in.China.IV.1993.HDTV.1080i.H.264.DD.2.0.&.MPEG.Audio.2.0 5.5

2021年09月17日 08:25:24     电影发布:来源于网络     电影分类:国产电影     评论(0)    

黄飞鸿之四:王者之风[国语配音/中文字幕].Once.Upon.a.Time.in.China.IV.1993.HDTV.1080i.H.264.DD.2.0.&.MPEG.Audio.2.0 5.5 武侠片 古装片 动作片 国产电影  第1张

◎译 名 黄飞鸿之四:王者之风 / 黄飞鸿之王者之风 / Once Upon a Time in China IV

◎片 名 黃飛鴻之四王者之風

◎年 代 1993

◎产 地 中国大陆 / 中国香港

◎类 别 动作 / 武侠 / 古装

◎语 言 粤语 / 汉语普通话

◎上映日期 1993-06-10(中国香港)

◎IMDb链接 https://www.imdb.com/title/tt0107162/

◎豆瓣评分 7.1/10 (23122人评价)

◎豆瓣链接 https://movie.douban.com/subject/1294011/

◎片 长 102分钟

◎导 演 元彬 Bun Yuen (id:1278657)

◎编 剧 徐克 Hark Tsui (id:1007152)

邓碧燕 Elsa Tang (id:1321260)

◎演 员 赵文卓 Man Cheuk Chiu (id:1000526)

王静莹 Jane Wang (id:1274668)

莫少聪 Siu Chung Mok (id:1037846)

熊欣欣 Xinxin Xiong (id:1033090)

周比利 Billy Chow (id:1050501)

钱嘉乐 Kar Lok Chin (id:1025476)

刘洵 Shun Lau (id:1274304)

林志泰 Chi Tai Lam (id:1433961)

王菁华 Jinghua Wang (id:1322293)

陈继铭 Jiming Chen (id:1318452)

鲁亦诗 Louis Roth (id:1321259)

徐克 Hark Tsui (id:1007152)

成志谷 Zhigu Cheng (id:1412715)

吴思远 See-Yuen Ng (id:1293125)

胡伟立 Wai Lap Wu (id:1275249)

黄岳泰 Arthur Wong (id:1301185)

刘春福 Chunfu Liu (id:1401958)

麦子善 Marco Mak (id:1280638)

侯荣恒 Rongheng Hou (id:1403099)

林峰 Feng Lin (id:1322676)

周少龙 Shao Lung Chou (id:1344862)

邹文怀 Raymond Chow (id:1016883)

◎标 签 香港 / 动作 / 武侠 / 徐克 / 黄飞鸿 / 功夫 / 1993 / 古装

◎简 介

黄飞鸿(赵文卓 饰)夺得狮王争霸金牌后飘然而去,一时间广东会馆高朋云集纷纷做贺,八旗将军府副都统阿兰成都(陈继铭 饰)大人登门拜访,原来八国联军欲使用各自的巨型赛狮挑战清廷,为维护国体,黄飞鸿决定出战与阿兰将军共赴国难。梁宽(莫少聪 饰)再度惹下事端被黄飞鸿驱逐,无奈只得与鬼脚七(熊欣欣 饰)等找到在北京办报的十四姨(王静莹 饰)求助,黄飞鸿亦赶到报馆,却与十四姨卷入了红灯照在租界内屠杀洋人的事端,黄飞鸿出手救人,与红灯照大师姐苗三娘(王菁华 饰)一同被德国兵士关押拷打。越狱而出的黄飞鸿从红灯照手中救出了众亲人,然而却因此错过了赛狮,阿兰成都将军孤身战死。黄飞鸿为国为友,满腔豪情二次挑战八国巨狮……

  1. ##### MediaInfo ######

  2. General

  3. ID : 1024 (0x400)

  4. Complete name : Once Upon a Time in China IV 1993 HDTV 1080i H.264 DD 2.0 & MPEG Audio [email protected]

  5. Format : MPEG-TS

  6. File size : 5.52 GiB

  7. Duration : 1 h 36 min

  8. Overall bit rate mode : Variable

  9. Overall bit rate : 8 200 kb/s


  10. Video

  11. ID : 105 (0x69)

  12. Menu ID : 2405 (0x965)

  13. Format : AVC

  14. Format/Info : Advanced Video Codec

  15. Format profile : [email protected]

  16. Format settings : CABAC / 4 Ref Frames

  17. Format settings, CABAC : Yes

  18. Format settings, Reference frames : 4 frames

  19. Codec ID : 27

  20. Duration : 1 h 36 min

  21. Bit rate : 7 342 kb/s

  22. Width : 1 920 pixels

  23. Height : 1 080 pixels

  24. Display aspect ratio : 16:9

  25. Frame rate : 25.000 FPS

  26. Color space : YUV

  27. Chroma subsampling : 4:2:0

  28. Bit depth : 8 bits

  29. Scan type : MBAFF

  30. Scan type, store method : Interleaved fields

  31. Scan order : Top Field First

  32. Bits/(Pixel*Frame) : 0.142

  33. Stream size : 4.94 GiB (90%)


  34. Audio #1

  35. ID : 221 (0xDD)

  36. Menu ID : 2405 (0x965)

  37. Format : AC-3

  38. Format/Info : Audio Coding 3

  39. Commercial name : Dolby Digital

  40. Codec ID : 6

  41. Duration : 1 h 36 min

  42. Bit rate mode : Constant

  43. Bit rate : 256 kb/s

  44. Channel(s) : 2 channels

  45. Channel layout : L R

  46. Sampling rate : 48.0 kHz

  47. Frame rate : 31.250 FPS (1536 SPF)

  48. Compression mode : Lossy

  49. Delay relative to video : -18 ms

  50. Stream size : 176 MiB (3%)

  51. Language : English

  52. Service kind : Complete Main


  53. Audio #2

  54. ID : 222 (0xDE)

  55. Menu ID : 2405 (0x965)

  56. Format : MPEG Audio

  57. Format version : Version 1

  58. Format profile : Layer 2

  59. Format settings : Joint stereo / Intensity Stereo + MS Stereo

  60. Codec ID : 3

  61. Duration : 1 h 36 min

  62. Bit rate mode : Constant

  63. Bit rate : 192 kb/s

  64. Channel(s) : 2 channels

  65. Sampling rate : 48.0 kHz

  66. Frame rate : 41.667 FPS (1152 SPF)

  67. Compression mode : Lossy

  68. Delay relative to video : -17 ms

  69. Stream size : 132 MiB (2%)

  70. Language : English


  71. Menu

  72. ID : 55 (0x37)

  73. Menu ID : 2405 (0x965)

  74. Duration : 1 h 36 min

  75. List : 105 (0x69) (AVC) / 221 (0xDD) (AC-3, English) / 222 (0xDE) (MPEG Audio, English)

  76. Language : / English / English


文件下载


除非特别注明,本文『黄飞鸿之四:王者之风[国语配音/中文字幕].Once.Upon.a.Time.in.China.IV.1993.HDTV.1080i.H.264.DD.2.0.&.MPEG.Audio.2.0 5.5』来源于互联网机器人自动抓取,非本站原创。 浮游电影网不对本文拥有版权,如有侵犯,请联系邮箱:fuyouu#yandex.com[#换成@]投诉。我们会在15个工作日内删除。 但烦请转载时请标明出处:“本文转载于『浮游电影网』,原文地址:https://www.fuyouu.com/14419.html

评论吧骚年!

发表你的见解   

昵称*

E-mail*(建议输入,以便收到博主回复的提示邮件)

验证码*

您可以使用eMule或eMule Mod(Windows)、aMule(Win、Linux、Mac)等软件下载eD2k链接。。
eMule收藏集(.emulecollection)文件是您选中的所有链接的列表文件。eMule可以直接下载它们。
按住SHIFT键选择可以选中多个选择框。
可用文件名和大小选择器来选择文件。
文件名选择器帮您根据文件名称或后缀来选择文件。不分大小写。
符号使用:
和:空格( )、+
不包含:-
或:|
转义:一对英文引号("");
匹配开头:^
匹配结尾:$
例如:
选中所有名称中包含有“eMule”或“0.49c”字眼,但不包含有“exe”字眼的:emule|0.49c -exe
选中所有名称的开头是“eMule”,结尾是“0.49c”的:^emule 0.49c$
选中所有名称中带有“eMule 0.49c”的(必须是“eMule 0.49c”,中间没有别的字符,不能是“eMule fake 0.49c”),需要转义:"emule 0.49c"
大小选择器帮您根据文件大小选择文件。