当前位置: 首页 >> 国产电影 >> 迷妹罗曼史[国语配音/中文字幕].A.Fangirl's.Romance.2021.1080p.WEB-DL.H264.AAC 29.68GB >> 正文

迷妹罗曼史[国语配音/中文字幕].A.Fangirl's.Romance.2021.1080p.WEB-DL.H264.AAC 29.68GB

2021年09月17日 08:24:17     电影发布:来源于网络     电影分类:国产电影     评论(0)    

迷妹罗曼史[国语配音/中文字幕].A.Fangirls.Romance.2021.1080p.WEB DL.H264.AAC 29.68GB 爱情片 喜剧片 国产电影  第1张

◎译 名 迷妹罗曼史 / 迷妹“罗”曼史 / 恋曲90后 / 爸爸不是罗大佑 / 我爸不是罗大佑 / A Fangirl's Romance

◎年 代 2021

◎产 地 中国大陆

◎类 别 喜剧 / 爱情

◎语 言 汉语普通话

◎上映日期 2021-05-28(中国大陆)

◎IMDb链接 https://www.imdb.com/title//

◎豆瓣评分 3.0/10 (1215人评价)

◎豆瓣链接 https://movie.douban.com/subject/26889600/

◎片 长 90分钟

◎导 演 秦鹏 Peng Qin (id:1360602)

◎编 剧 鲍丹露 Danlu Bao (id:1363269)

阳韵琳 Yunlin Yang (id:1388431)

王佩晨 Peichen Wang (id:1335263)

董润年 Runnian Dong (id:1327604)

◎演 员 闫妮 Ni Yan (id:1274496)

盛一伦 Yilun Sheng (id:1330841)

于小彤 Xiaotong Yu (id:1276052)

郭姝彤 Shutong Guo (id:1355324)

周冬雨 Dongyu Zhou (id:1274224)

魏晨 Vision Wei (id:1035594)

秦海璐 Hailu Qin (id:1274437)

黄觉 Jue Huang (id:1275273)

刘循子墨 Xunzimo Liu (id:1320453)

柯达 Da Ke (id:1340746)

罗大佑 Tayu Lo (id:1011384)

李霞 Xia Li (id:1324397)

李少红 Shaohong Li (id:1274842)

沈羽倩 Yuqian Shen (id:1315112)

于冬 Dong Yu (id:1317865)

曾念平 Nianping Zeng (id:1315142)

◎标 签 爱情 / 喜剧 / 国产电影 / 2021 / 电影 / 中国大陆 / 国产 / 国影

◎简 介

90后高歌(盛一伦 饰)是个充满奇思妙想的科技狂人。为了阻止母亲(闫妮 饰)把他爸爸是歌手罗大佑的谎话告诉全世界,而带着母亲一同去深圳与罗大佑当面对质,然而到达深圳后却不幸与母亲走失,在与好友豆豆及小编导余微的一同寻找下,不仅遇到了母亲的旧时工友,更发现母亲曾经疯狂的青春和传奇性爱情故事。高歌终于消除了对母亲的误解,并与母亲一起踏上寻父之旅。

  1. ##### MediaInfo ######

  2. General

  3. Complete name : 迷妹罗曼史.A.Fangirl'[email protected]

  4. Format : MPEG-4

  5. Format profile : Base Media / Version 2

  6. Codec ID : mp42 (mp42/mp41)

  7. File size : 29.7 GiB

  8. Duration : 1 h 29 min

  9. Overall bit rate mode : Variable

  10. Overall bit rate : 47.3 Mb/s

  11. Encoded date : UTC 2021-09-03 14:31:42

  12. Tagged date : UTC 2021-09-03 14:36:36

  13. TIM : 00:00:00:00

  14. TSC : 24

  15. TSZ : 1


  16. Video

  17. ID : 1

  18. Format : AVC

  19. Format/Info : Advanced Video Codec

  20. Format profile : [email protected]

  21. Format settings : CABAC / 4 Ref Frames

  22. Format settings, CABAC : Yes

  23. Format settings, Reference frames : 4 frames

  24. Codec ID : avc1

  25. Codec ID/Info : Advanced Video Coding

  26. Duration : 1 h 29 min

  27. Bit rate : 47.0 Mb/s

  28. Width : 1 920 pixels

  29. Height : 812 pixels

  30. Display aspect ratio : 2.35:1

  31. Frame rate mode : Constant

  32. Frame rate : 24.000 FPS

  33. Color space : YUV

  34. Chroma subsampling : 4:2:0

  35. Bit depth : 8 bits

  36. Scan type : Progressive

  37. Bits/(Pixel*Frame) : 1.257

  38. Stream size : 29.5 GiB (99%)

  39. Language : English

  40. Encoded date : UTC 2021-09-03 14:31:42

  41. Tagged date : UTC 2021-09-03 14:31:42

  42. Color range : Limited

  43. Color primaries : BT.709

  44. Transfer characteristics : BT.709

  45. Matrix coefficients : BT.709

  46. Codec configuration box : avcC


  47. Audio

  48. ID : 2

  49. Format : AAC LC

  50. Format/Info : Advanced Audio Codec Low Complexity

  51. Codec ID : mp4a-40-2

  52. Duration : 1 h 29 min

  53. Source duration : 1 h 29 min

  54. Bit rate mode : Variable

  55. Bit rate : 317 kb/s

  56. Maximum bit rate : 411 kb/s

  57. Channel(s) : 2 channels

  58. Channel layout : L R

  59. Sampling rate : 48.0 kHz

  60. Frame rate : 46.875 FPS (1024 SPF)

  61. Compression mode : Lossy

  62. Stream size : 204 MiB (1%)

  63. Source stream size : 204 MiB (1%)

  64. Language : English

  65. Encoded date : UTC 2021-09-03 14:31:42

  66. Tagged date : UTC 2021-09-03 14:31:42


文件下载


除非特别注明,本文『迷妹罗曼史[国语配音/中文字幕].A.Fangirl's.Romance.2021.1080p.WEB-DL.H264.AAC 29.68GB』来源于互联网机器人自动抓取,非本站原创。 浮游电影网不对本文拥有版权,如有侵犯,请联系邮箱:fuyouu#yandex.com[#换成@]投诉。我们会在15个工作日内删除。 但烦请转载时请标明出处:“本文转载于『浮游电影网』,原文地址:https://www.fuyouu.com/14418.html

评论吧骚年!

发表你的见解   

昵称*

E-mail*(建议输入,以便收到博主回复的提示邮件)

验证码*

您可以使用eMule或eMule Mod(Windows)、aMule(Win、Linux、Mac)等软件下载eD2k链接。。
eMule收藏集(.emulecollection)文件是您选中的所有链接的列表文件。eMule可以直接下载它们。
按住SHIFT键选择可以选中多个选择框。
可用文件名和大小选择器来选择文件。
文件名选择器帮您根据文件名称或后缀来选择文件。不分大小写。
符号使用:
和:空格( )、+
不包含:-
或:|
转义:一对英文引号("");
匹配开头:^
匹配结尾:$
例如:
选中所有名称中包含有“eMule”或“0.49c”字眼,但不包含有“exe”字眼的:emule|0.49c -exe
选中所有名称的开头是“eMule”,结尾是“0.49c”的:^emule 0.49c$
选中所有名称中带有“eMule 0.49c”的(必须是“eMule 0.49c”,中间没有别的字符,不能是“eMule fake 0.49c”),需要转义:"emule 0.49c"
大小选择器帮您根据文件大小选择文件。