当前位置: 首页 >> 海外电影 >> 不朽[中文字幕].22.Bullets.2010.1080p.FriDay.WEB-DL.H264.AAC 4.19GB >> 正文

不朽[中文字幕].22.Bullets.2010.1080p.FriDay.WEB-DL.H264.AAC 4.19GB

2021年09月17日 08:23:03     电影发布:来源于网络     电影分类:海外电影     评论(0)    

不朽[中文字幕].22.Bullets.2010.1080p.FriDay.WEB DL.H264.AAC 4.19GB 犯罪片 惊悚片 动作片 海外电影  第1张

◎译 名 不朽 / 22 Bullets / 索命22颗子弹

◎片 名 L'immortel

◎年 代 2010

◎产 地 法国

◎类 别 动作 / 惊悚 / 犯罪

◎语 言 法语

◎上映日期 2010-03-24

◎IMDb链接 https://www.imdb.com/title/tt1167638/

◎豆瓣评分 6.9/10 (9024人评价)

◎豆瓣链接 https://movie.douban.com/subject/3009168/

◎片 长 117 分钟

◎导 演 理查德·贝里 Richard Berry (id:1055175)

◎编 剧 理查德·贝里 Richard Berry (id:1055175)

Eric Assous Eric Assous (id:1277522)

◎演 员 让·雷诺 Jean Reno (id:1025182)

凯德·麦拉德 Kad Merad (id:1000491)

玛琳娜·佛伊丝 Marina Fo?s (id:1005164)

茂萨·马斯克里 Moussa Maaskri (id:1290586)

Philippe Chiffre Philippe Chiffre (id:1280651)

卡琳·萨尔法蒂 Carine Sarfati (id:1296708)

皮埃尔·莫瑞尔 Pierre Morel (id:1044975)

◎标 签 法国 / 让雷诺 / 犯罪 / 法国电影 / 动作 / 让·雷诺 / JeanReno / 2010

◎简 介

影片改编自法国作家Franz-Olivier Giesbert在2006年出版的同名小说。

故事取材于法国上世纪70年代末发生在雅克贝特的一起真实暴徒火拼事件。

Charly Matte(让·雷诺 Jean Reno 饰)曾是马赛流氓帮的一位教父级人物,在经历了一段漫长的马赛黑手党生涯之后,告别混乱的生活,开始走向正道。三年间,这个只求平静度日了此余生的男人平静的和老婆孩子享受天伦之乐,以为可以彻底告别过往那段阴暗的岁月。但是在一个寒冬的清晨,一切都彻底被改变,Charly遭到伏击,身中数枪,倒在车库中。医生在Charly的身体里发现了22颗子弹,而他却奇迹般地得以生还。到底是谁策划了这次谋杀,又是谁出卖了他,一切真相都将被揭开……

  1. ##### MediaInfo ######

  2. General

  3. Unique ID : 253097020488167417713122029361653453025 (0xBE68B68B0E7C85254390DDC0F0A990E1)

  4. Complete name : [email protected]v

  5. Format : Matroska

  6. Format version : Version 4

  7. File size : 4.19 GiB

  8. Duration : 1 h 57 min

  9. Overall bit rate : 5 127 kb/s

  10. Encoded date : UTC 2021-09-15 13:20:13

  11. Writing application : mkvmerge v56.1.0 ('My Friend') 64-bit

  12. Writing library : libebml v1.4.2 + libmatroska v1.6.4


  13. Video

  14. ID : 1

  15. Format : AVC

  16. Format/Info : Advanced Video Codec

  17. Format profile : [email protected]

  18. Format settings : CABAC / 3 Ref Frames

  19. Format settings, CABAC : Yes

  20. Format settings, Reference frames : 3 frames

  21. Format settings, GOP : M=1, N=60

  22. Codec ID : V_MPEG4/ISO/AVC

  23. Duration : 1 h 57 min

  24. Bit rate : 4 996 kb/s

  25. Width : 1 920 pixels

  26. Height : 1 080 pixels

  27. Display aspect ratio : 16:9

  28. Frame rate mode : Constant

  29. Frame rate : 30.000 FPS

  30. Color space : YUV

  31. Chroma subsampling : 4:2:0

  32. Bit depth : 8 bits

  33. Scan type : Progressive

  34. Bits/(Pixel*Frame) : 0.080

  35. Stream size : 4.09 GiB (97%)

  36. Language : English

  37. Default : Yes

  38. Forced : No


  39. Audio

  40. ID : 2

  41. Format : AAC LC

  42. Format/Info : Advanced Audio Codec Low Complexity

  43. Codec ID : A_AAC-2

  44. Duration : 1 h 57 min

  45. Bit rate : 128 kb/s

  46. Channel(s) : 2 channels

  47. Channel layout : L R

  48. Sampling rate : 44.1 kHz

  49. Frame rate : 43.066 FPS (1024 SPF)

  50. Compression mode : Lossy

  51. Stream size : 107 MiB (2%)

  52. Title : French

  53. Language : French

  54. Default : Yes

  55. Forced : No


  56. Text #1

  57. ID : 3

  58. Format : UTF-8

  59. Codec ID : S_TEXT/UTF8

  60. Codec ID/Info : UTF-8 Plain Text

  61. Duration : 1 h 49 min

  62. Bit rate : 37 b/s

  63. Count of elements : 1337

  64. Stream size : 30.2 KiB (0%)

  65. Title : Chinese Simplified

  66. Language : Chinese

  67. Default : Yes

  68. Forced : No


  69. Text #2

  70. ID : 4

  71. Format : UTF-8

  72. Codec ID : S_TEXT/UTF8

  73. Codec ID/Info : UTF-8 Plain Text

  74. Duration : 1 h 49 min

  75. Bit rate : 37 b/s

  76. Count of elements : 1337

  77. Stream size : 30.2 KiB (0%)

  78. Title : Chinese Traditional

  79. Language : Chinese

  80. Default : No

  81. Forced : No


文件下载


除非特别注明,本文『不朽[中文字幕].22.Bullets.2010.1080p.FriDay.WEB-DL.H264.AAC 4.19GB』来源于互联网机器人自动抓取,非本站原创。 浮游电影网不对本文拥有版权,如有侵犯,请联系邮箱:fuyouu#yandex.com[#换成@]投诉。我们会在15个工作日内删除。 但烦请转载时请标明出处:“本文转载于『浮游电影网』,原文地址:https://www.fuyouu.com/14417.html

评论吧骚年!

发表你的见解   

昵称*

E-mail*(建议输入,以便收到博主回复的提示邮件)

验证码*

您可以使用eMule或eMule Mod(Windows)、aMule(Win、Linux、Mac)等软件下载eD2k链接。。
eMule收藏集(.emulecollection)文件是您选中的所有链接的列表文件。eMule可以直接下载它们。
按住SHIFT键选择可以选中多个选择框。
可用文件名和大小选择器来选择文件。
文件名选择器帮您根据文件名称或后缀来选择文件。不分大小写。
符号使用:
和:空格( )、+
不包含:-
或:|
转义:一对英文引号("");
匹配开头:^
匹配结尾:$
例如:
选中所有名称中包含有“eMule”或“0.49c”字眼,但不包含有“exe”字眼的:emule|0.49c -exe
选中所有名称的开头是“eMule”,结尾是“0.49c”的:^emule 0.49c$
选中所有名称中带有“eMule 0.49c”的(必须是“eMule 0.49c”,中间没有别的字符,不能是“eMule fake 0.49c”),需要转义:"emule 0.49c"
大小选择器帮您根据文件大小选择文件。