当前位置: 首页 >> 国产电影 >> 秘密访客[国语配音].Home.Sweet.Home.2021.1080p.BluRay.TrueHD.5.1.x265 7.16GB >> 正文

秘密访客[国语配音].Home.Sweet.Home.2021.1080p.BluRay.TrueHD.5.1.x265 7.16GB

2021年09月17日 08:21:52     电影发布:来源于网络     电影分类:国产电影     评论(0)    

秘密访客[国语配音].Home.Sweet.Home.2021.1080p.BluRay.TrueHD.5.1.x265 7.16GB 悬疑片 惊悚片 国产电影  第1张

◎译 名 秘密访客 / Home Sweet Home

◎年 代 2021

◎产 地 中国大陆

◎类 别 悬疑 / 惊悚

◎语 言 汉语普通话

◎上映日期 2021-05-01(中国大陆)

◎IMDb链接 https://www.imdb.com/title/tt10097384/

◎豆瓣评分 5.4/10 (154636人评价)

◎豆瓣链接 https://movie.douban.com/subject/30378158/

◎片 长 111分钟

◎导 演 陈正道 Leste Chen (id:1189801)

◎编 剧 殳俏 Qiao Shu (id:1404459)

易帅婕 Shuaijie Yi (id:1444843)

◎演 员 郭富城 Aaron Kwok (id:1041390)

段奕宏 Yihong Duan (id:1274291)

张子枫 Zifeng Zhang (id:1274254)

许玮甯 Wei-Ning Hsu (id:1315600)

荣梓杉 Zishan Rong (id:1352321)

王圣迪 Shengdi Wang (id:1407876)

吕聿来 Yulai Lü (id:1274390)

张柏嘉 Baijia Zhang (id:1386912)

孔雁 Yan Kong (id:1397195)

魏之皓 Zhihao Wei (id:1376608)

陶海 Hai Tao (id:1316784)

李解 Jie Li (id:1315283)

李晓川 Xiaochuan Li (id:1315668)

任洛敏 Luomin Ren (id:1372200)

巩小榕 Xiaorong Gong (id:1337266)

史晓晔 Tina Shi (id:1424801)

杨向华 Xianghua Yang (id:1422365)

李捷 Jie Li (id:1403835)

曹华益 Huayi Cao (id:1379649)

李宁 Ning Li (id:1453841)

梁翘柏 Kubert Leung (id:1327173)

林志坚 Charlie Lam (id:1304405)

齐小东 Xiaodong Qi (id:1436224)

杨红雨 Hongyu Yang (id:1301417)

罗顺福 Shunfu Luo (id:1362884)

沈展志 Chan-Chih Shen (id:1397768)

李言 Yan Li (id:1456204)

叶竹真 Jewel Yeh (id:1397769)

张正权 Zhengquan Zhang (id:1454843)

赵楠 Nan Zhao (id:1325307)

杨江 Jiang Yang (id:1351381)

罗义民 Norman Law (id:1316462)

◎标 签 悬疑 / 家庭 / 犯罪 / 剧情 / 惊悚 / 推理 / 2021 / 中国大陆

◎简 介

校车司机于困樵(段奕宏 饰)因失职酿成了一起重大的校车车祸,困樵拼死救出了似与车祸背后真相息息相关的汪楚祺(荣梓杉 饰),校车上的其他学生无人生还。

得知此事家境显赫的汪父(郭富城 饰)为了隐藏这个秘密,不得不把困樵藏在自己家的地下室里长达三年,却处处暗示困樵何时自首。随着访客的到来,这个原本温馨和睦的四口之家变得越来越诡异,母亲(许玮甯 饰)整日惴惴不安,姐姐(张子枫 饰)举止一反常态,家人个个心怀鬼胎,怪事频出,这个家背后不可告人的秘密似乎即将浮出水面……

◎获奖情况 (共1项)

第7届豆瓣电影年度榜单 (2020)

最值得期待的华语电影(提名)

  1. ##### MediaInfo ######

  2. General

  3. Unique ID : 176354032524789219790954847851158878428 (0x84AC8D1BCA43B66A455AD4E3DD56B8DC)

  4. Complete name : [email protected]QDDQ.COM.mkv

  5. Format : Matroska

  6. Format version : Version 4

  7. File size : 7.16 GiB

  8. Duration : 1 h 49 min

  9. Overall bit rate mode : Variable

  10. Overall bit rate : 9 323 kb/s

  11. Movie name : Home Sweet Home 2021 1080p BluRay TrueHD 5.1 [email protected]

  12. Encoded date : UTC 2021-09-14 22:41:33

  13. Writing application : mkvmerge v38.0.0 ('The Silent Type') 64-bit

  14. Writing library : libebml v1.3.9 + libmatroska v1.5.2


  15. Video

  16. ID : 1

  17. Format : HEVC

  18. Format/Info : High Efficiency Video Coding

  19. Format profile : Main [email protected]@High

  20. Codec ID : V_MPEGH/ISO/HEVC

  21. Duration : 1 h 49 min

  22. Bit rate : 6 646 kb/s

  23. Width : 1 920 pixels

  24. Height : 808 pixels

  25. Display aspect ratio : 2.40:1

  26. Frame rate mode : Constant

  27. Frame rate : 24.000 FPS

  28. Color space : YUV

  29. Chroma subsampling : 4:2:0

  30. Bit depth : 10 bits

  31. Bits/(Pixel*Frame) : 0.178

  32. Stream size : 5.10 GiB (71%)

  33. Title : [email protected]

  34. Writing library : x265 - H.265/HEVC codec

  35. Default : Yes

  36. Forced : No


  37. Audio #1

  38. ID : 2

  39. Format : MLP FBA

  40. Format/Info : Meridian Lossless Packing FBA

  41. Commercial name : Dolby TrueHD

  42. Codec ID : A_TRUEHD

  43. Duration : 1 h 49 min

  44. Bit rate mode : Variable

  45. Bit rate : 1 951 kb/s

  46. Maximum bit rate : 3 546 kb/s

  47. Channel(s) : 6 channels

  48. Channel layout : L R C LFE Ls Rs

  49. Sampling rate : 96.0 kHz

  50. Frame rate : 1 200.000 FPS (80 SPF)

  51. Compression mode : Lossless

  52. Stream size : 1.50 GiB (21%)

  53. Title : Mandarin

  54. Language : Chinese

  55. Default : Yes

  56. Forced : No


  57. Audio #2

  58. ID : 3

  59. Format : AC-3

  60. Format/Info : Audio Coding 3

  61. Commercial name : Dolby Digital

  62. Codec ID : A_AC3

  63. Duration : 1 h 49 min

  64. Bit rate mode : Constant

  65. Bit rate : 640 kb/s

  66. Channel(s) : 6 channels

  67. Channel layout : L R C LFE Ls Rs

  68. Sampling rate : 48.0 kHz

  69. Frame rate : 31.250 FPS (1536 SPF)

  70. Compression mode : Lossy

  71. Stream size : 503 MiB (7%)

  72. Service kind : Complete Main

  73. Default : No

  74. Forced : No


  75. Text #1

  76. ID : 4

  77. Format : PGS

  78. Muxing mode : zlib

  79. Codec ID : S_HDMV/PGS

  80. Codec ID/Info : Picture based subtitle format used on BDs/HD-DVDs

  81. Duration : 1 h 41 min

  82. Bit rate : 24.0 kb/s

  83. Count of elements : 2113

  84. Stream size : 17.4 MiB (0%)

  85. Title : CHS

  86. Language : Chinese

  87. Default : Yes

  88. Forced : No


  89. Text #2

  90. ID : 5

  91. Format : PGS

  92. Muxing mode : zlib

  93. Codec ID : S_HDMV/PGS

  94. Codec ID/Info : Picture based subtitle format used on BDs/HD-DVDs

  95. Duration : 1 h 41 min

  96. Bit rate : 24.4 kb/s

  97. Count of elements : 2111

  98. Stream size : 17.7 MiB (0%)

  99. Title : CHT

  100. Language : Chinese

  101. Default : No

  102. Forced : No


  103. Menu

  104. 00:00:00.000 : en:Chapter 01

  105. 00:09:58.290 : en:Chapter 02

  106. 00:20:19.958 : en:Chapter 03

  107. 00:28:17.415 : en:Chapter 04

  108. 00:35:47.750 : en:Chapter 05

  109. 00:46:28.083 : en:Chapter 06

  110. 00:54:15.291 : en:Chapter 07

  111. 01:03:08.041 : en:Chapter 08

  112. 01:14:21.125 : en:Chapter 09

  113. 01:25:03.707 : en:Chapter 10

  114. 01:30:55.457 : en:Chapter 11

  115. 01:39:59.082 : en:Chapter 12


文件下载


除非特别注明,本文『秘密访客[国语配音].Home.Sweet.Home.2021.1080p.BluRay.TrueHD.5.1.x265 7.16GB』来源于互联网机器人自动抓取,非本站原创。 浮游电影网不对本文拥有版权,如有侵犯,请联系邮箱:fuyouu#yandex.com[#换成@]投诉。我们会在15个工作日内删除。 但烦请转载时请标明出处:“本文转载于『浮游电影网』,原文地址:https://www.fuyouu.com/14416.html

评论吧骚年!

发表你的见解   

昵称*

E-mail*(建议输入,以便收到博主回复的提示邮件)

验证码*

您可以使用eMule或eMule Mod(Windows)、aMule(Win、Linux、Mac)等软件下载eD2k链接。。
eMule收藏集(.emulecollection)文件是您选中的所有链接的列表文件。eMule可以直接下载它们。
按住SHIFT键选择可以选中多个选择框。
可用文件名和大小选择器来选择文件。
文件名选择器帮您根据文件名称或后缀来选择文件。不分大小写。
符号使用:
和:空格( )、+
不包含:-
或:|
转义:一对英文引号("");
匹配开头:^
匹配结尾:$
例如:
选中所有名称中包含有“eMule”或“0.49c”字眼,但不包含有“exe”字眼的:emule|0.49c -exe
选中所有名称的开头是“eMule”,结尾是“0.49c”的:^emule 0.49c$
选中所有名称中带有“eMule 0.49c”的(必须是“eMule 0.49c”,中间没有别的字符,不能是“eMule fake 0.49c”),需要转义:"emule 0.49c"
大小选择器帮您根据文件大小选择文件。