当前位置: 首页 >> 港台电影 >> 百变星君[国粤语配音/中文字幕].Sixty.Million.Dollar.Man.1995.1080p.BluRay.x265.10bit.DTS.2Audio 7.09GB >> 正文

百变星君[国粤语配音/中文字幕].Sixty.Million.Dollar.Man.1995.1080p.BluRay.x265.10bit.DTS.2Audio 7.09GB

2021年09月17日 08:17:24     电影发布:来源于网络     电影分类:港台电影     评论(0)    

百变星君[国粤语配音/中文字幕].Sixty.Million.Dollar.Man.1995.1080p.BluRay.x265.10bit.DTS.2Audio 7.09GB 科幻片 奇幻片 喜剧片 港台电影  第1张

◎译 名 百变星君 / 百变金刚 / Sixty Million Dollar Man

◎片 名 百變星君

◎年 代 1995

◎产 地 中国香港

◎类 别 喜剧 / 科幻 / 奇幻

◎语 言 粤语 / 汉语普通话 / 英语

◎上映日期 1995-08-19(中国香港)

◎IMDb链接 https://www.imdb.com/title/tt0112446/

◎豆瓣评分 7.7/10 (251976人评价)

◎豆瓣链接 https://movie.douban.com/subject/1300498/

◎片 长 92 分钟

◎导 演 叶伟民 Raymond Yip Wai-Man (id:1275004)

王晶 Jing Wong (id:1274331)

◎编 剧 王晶 Jing Wong (id:1274331)

叶伟民 Raymond Yip Wai-Man (id:1275004)

◎演 员 周星驰 Stephen Chow (id:1048026)

吴孟达 Man Tat Ng (id:1016771)

梁咏琪 Gigi Leung (id:1000975)

孙佳君 Paulyn Sun (id:1050664)

徐锦江 Elvis Tsui (id:1028828)

黄一飞 Yut Fei Wong (id:1301215)

江欣燕 Elvina Kong (id:1104138)

朱咪咪 Mimi Chu (id:1275715)

李健仁 Kin-Yan Lee (id:1315575)

郑祖 Joe Cheng (id:1318850)

宋本中 Boon-Chung Sung (id:1322129)

达伦·萨赫拉维 Darren Shahlavi (id:1054717)

黎应就 Guy Lai (id:1345936)

邹义训 Yixun Chow (id:1426899)

罗伟佳 Wai-Kai Law (id:1435881)

胡立成 Licheng Hu (id:1331134)

林迪安 Dion Lam (id:1289289)

文隽 Manfred Wong (id:1274823)

陈志辉 Chi Fai Chan (id:1312869)

查尔斯·沈 Charles Shen (id:1345685)

邓兆尊 Siu Juen Dang (id:1345680)

麦克·里德 Mike Leeder (id:1382791)

馮鳳珍 Rita Fung (id:1441554)

王晶 Jing Wong (id:1274331)

江玉仪 Ivy Kong (id:1275631)

刘伟强 Andrew Lau (id:1106979)

麦子善 Marco Mak (id:1280638)

张世宏 Silver Cheung (id:1318916)

黄志明 Wong Chi-Ming (id:1398895)

◎标 签 周星驰 / 喜剧 / 香港 / 香港电影 / 搞笑 / 王晶 / 百变星君 / 1995

◎简 介

夏威夷念大学的香港富豪子弟李泽星(周星驰 饰)学业无成挥金如土,是校园一霸,终因搭上黑帮老大情妇遭黑帮追杀,身体被炸成碎片。 在李泽星父亲(吴孟达 饰)的请求下,教授(徐锦江 饰)将李泽星全身人造复原,并把最新研制成功的无敌芯片置入其身,令其摇身一变成为无敌“百变金刚”。黑帮老大得知李泽星复活后,将写有战争程序的芯片植入手下身体,令其变身“铁甲威龙”前来追杀李泽星。为赢得暗恋的女同学虫虫(梁咏琪 饰)的芳心,李泽星决意重塑形象,奋力与“铁甲威龙”展开大战。

  1. ##### MediaInfo ######

  2. General

  3. Unique ID : 7549662585652268799193785161554745892 (0x5AE031A953884BA786C667819D25A24)

  4. Complete name : Sixty.M[email protected]BBQDDQ.COM.mkv

  5. Format : Matroska

  6. Format version : Version 4

  7. File size : 7.09 GiB

  8. Duration : 1 h 30 min

  9. Overall bit rate : 11.2 Mb/s

  10. Movie name : Sixty Million Dollar Man 1995

  11. Encoded date : UTC 2021-09-15 07:44:22

  12. Writing application : mkvmerge v61.0.0 ('So') 64-bit

  13. Writing library : libebml v1.4.2 + libmatroska v1.6.4

  14. Cover : Yes

  15. Attachments : cover.jpg


  16. Video

  17. ID : 1

  18. Format : HEVC

  19. Format/Info : High Efficiency Video Coding

  20. Format profile : Main [email protected]@Main

  21. Codec ID : V_MPEGH/ISO/HEVC

  22. Duration : 1 h 30 min

  23. Bit rate : 9 009 kb/s

  24. Width : 1 920 pixels

  25. Height : 1 080 pixels

  26. Display aspect ratio : 16:9

  27. Frame rate mode : Constant

  28. Frame rate : 24.000 FPS

  29. Color space : YUV

  30. Chroma subsampling : 4:2:0

  31. Bit depth : 10 bits

  32. Bits/(Pixel*Frame) : 0.181

  33. Stream size : 5.69 GiB (80%)

  34. Writing library : x265 3.5+2-g2b25c9ba0+45:[Windows][GCC 10.2.0][64 bit] Yuuki 10bit+8bit+12bit

  35. Encoding settings : rc=crf / crf=21.0000 / qcomp=0.60 / qpstep=4 / stats-write=0 / stats-read=0 / no-lossless / no-cu-lossless / aq-mode=3 / aq-strength=0.80 / cbqpoffs=0 / crqpoffs=0 / ipratio=1.40 / pbratio=1.30 / psy-rd=2.00 / psy-rdoq=0.00 / deblock=0:0 / ref=6 / limit-refs=1 / no-limit-modes / bframes=8 / b-adapt=2 / bframe-bias=0 / b-pyramid / b-intra / weightp / weightb / min-keyint=24 / max-keyint=240 / rc-lookahead=24 / gop-lookahead=0 / NTMzNTQ=uuDQuD2mJt9fsCf / scenecut=40 / hist-scenecut=0 / radl=0 / max-cu-size=64 / min-cu-size=8 / me=3 / subme=7 / merange=48 / rdoq-level=0 / rd=4 / rdpenalty=0 / dynamic-rd=0.00 / no-rd-refine / ----- / cutree / sao / no-rect / no-amp / no-open-gop / wpp / no-pmode / no-pme / no-psnr / no-ssim / nr-intra=0 / nr-inter=0 / no-constrained-intra / no-strong-intra-smoothing / max-tu-size=32 / tu-inter-depth=1 / tu-intra-depth=1 / limit-tu=0 / qg-size=32 / qpmax=69 / qpmin=0 / ----- / cpuid=533541111039 / frame-threads=4 / numa-pools=+ / log-level=2 / input-csp=1 / input-res=1920x1080 / interlace=0 / level-idc=0 / high-tier=1 / uhd-bd=0 / no-allow-non-conformance / repeat-headers / aud / no-hrd / info / hash=0 / no-temporal-layers / lookahead-slices=0 / no-splice / no-intra-refresh / no-ssim-rd / signhide / no-tskip / max-merge=3 / temporal-mvp / no-frame-dup / no-hme / no-analyze-src-pics / no-sao-non-deblock / selective-sao=4 / early-skip / rskip / no-fast-intra / no-tskip-fast / no-splitrd-skip / zone-count=0 / no-strict-cbr / no-rc-grain / no-const-vbv / sar=0 / overscan=0 / videoformat=5 / range=0 / colorprim=2 / transfer=2 / colormatrix=2 / chromaloc=0 / display-window=0 / cll=0,0 / min-luma=0 / max-luma=1023 / log2-max-poc-lsb=8 / vui-timing-info / vui-hrd-info / slices=1 / no-opt-qp-pps / no-opt-ref-list-length-pps / no-multi-pass-opt-rps / scenecut-bias=0.05 / hist-threshold=0.03 / no-opt-cu-delta-qp / no-aq-motion / no-hdr10 / no-hdr10-opt / no-dhdr10-opt / no-idr-recovery-sei / analysis-reuse-level=0 / analysis-save-reuse-level=0 / analysis-load-reuse-level=0 / scale-factor=0 / refine-intra=0 / refine-inter=0 / refine-mv=1 / refine-ctu-distortion=0 / no-limit-sao / ctu-info=0 / no-lowpass-dct / refine-analysis-type=0 / copy-pic=1 / max-ausize-factor=1.0 / no-dynamic-refine / no-single-sei / no-hevc-aq / no-svt / no-field / qp-adaptation-range=1.00 / scenecut-aware-qp=0conformance-window-offsets / right=0 / bottom=0 / NTMzNTQ= / decoder-max-rate=0 / no-vbv-live-multi-pass

  36. Default : Yes

  37. Forced : No


  38. Audio #1

  39. ID : 2

  40. Format : DTS

  41. Format/Info : Digital Theater Systems

  42. Codec ID : A_DTS

  43. Duration : 1 h 30 min

  44. Bit rate mode : Constant

  45. Bit rate : 1 536 kb/s

  46. Channel(s) : 6 channels

  47. Channel layout : C L R Ls Rs LFE

  48. Sampling rate : 48.0 kHz

  49. Frame rate : 93.750 FPS (512 SPF)

  50. Bit depth : 16 bits

  51. Compression mode : Lossy

  52. Stream size : 993 MiB (14%)

  53. Title : Cantonese

  54. Language : Chinese

  55. Default : Yes

  56. Forced : No


  57. Audio #2

  58. ID : 3

  59. Format : AC-3

  60. Format/Info : Audio Coding 3

  61. Commercial name : Dolby Digital

  62. Codec ID : A_AC3

  63. Duration : 1 h 30 min

  64. Bit rate mode : Constant

  65. Bit rate : 640 kb/s

  66. Channel(s) : 6 channels

  67. Channel layout : L R C LFE Ls Rs

  68. Sampling rate : 48.0 kHz

  69. Frame rate : 31.250 FPS (1536 SPF)

  70. Compression mode : Lossy

  71. Stream size : 414 MiB (6%)

  72. Title : Mandarin

  73. Language : Chinese

  74. Service kind : Complete Main

  75. Default : Yes

  76. Forced : No


  77. Text #1

  78. ID : 4

  79. Format : PGS

  80. Muxing mode : zlib

  81. Codec ID : S_HDMV/PGS

  82. Codec ID/Info : Picture based subtitle format used on BDs/HD-DVDs

  83. Duration : 1 h 27 min

  84. Bit rate : 54.0 kb/s

  85. Count of elements : 3094

  86. Stream size : 33.9 MiB (0%)

  87. Title : cht

  88. Language : Chinese

  89. Default : No

  90. Forced : No


  91. Text #2

  92. ID : 5

  93. Format : PGS

  94. Muxing mode : zlib

  95. Codec ID : S_HDMV/PGS

  96. Codec ID/Info : Picture based subtitle format used on BDs/HD-DVDs

  97. Duration : 1 h 27 min

  98. Bit rate : 45.4 kb/s

  99. Count of elements : 3094

  100. Stream size : 28.5 MiB (0%)

  101. Language : English

  102. Default : No

  103. Forced : No


文件下载


除非特别注明,本文『百变星君[国粤语配音/中文字幕].Sixty.Million.Dollar.Man.1995.1080p.BluRay.x265.10bit.DTS.2Audio 7.09GB』来源于互联网机器人自动抓取,非本站原创。 浮游电影网不对本文拥有版权,如有侵犯,请联系邮箱:fuyouu#yandex.com[#换成@]投诉。我们会在15个工作日内删除。 但烦请转载时请标明出处:“本文转载于『浮游电影网』,原文地址:https://www.fuyouu.com/14414.html

评论吧骚年!

发表你的见解   

昵称*

E-mail*(建议输入,以便收到博主回复的提示邮件)

验证码*

您可以使用eMule或eMule Mod(Windows)、aMule(Win、Linux、Mac)等软件下载eD2k链接。。
eMule收藏集(.emulecollection)文件是您选中的所有链接的列表文件。eMule可以直接下载它们。
按住SHIFT键选择可以选中多个选择框。
可用文件名和大小选择器来选择文件。
文件名选择器帮您根据文件名称或后缀来选择文件。不分大小写。
符号使用:
和:空格( )、+
不包含:-
或:|
转义:一对英文引号("");
匹配开头:^
匹配结尾:$
例如:
选中所有名称中包含有“eMule”或“0.49c”字眼,但不包含有“exe”字眼的:emule|0.49c -exe
选中所有名称的开头是“eMule”,结尾是“0.49c”的:^emule 0.49c$
选中所有名称中带有“eMule 0.49c”的(必须是“eMule 0.49c”,中间没有别的字符,不能是“eMule fake 0.49c”),需要转义:"emule 0.49c"
大小选择器帮您根据文件大小选择文件。