当前位置: 首页 >> 海外电影 >> 青木瓜之味[中文字幕].The.Scent.of.Green.Papaya.1993.1080p.BluRay.DD2.0.x265-10bit 10.16GB >> 正文

青木瓜之味[中文字幕].The.Scent.of.Green.Papaya.1993.1080p.BluRay.DD2.0.x265-10bit 10.16GB

2021年09月17日 08:16:07     电影发布:来源于网络     电影分类:海外电影     评论(0)    

青木瓜之味[中文字幕].The.Scent.of.Green.Papaya.1993.1080p.BluRay.DD2.0.x265 10bit 10.16GB 音乐片 爱情片 剧情片 海外电影  第1张

◎译 名 青木瓜之味 / 番木瓜香 / 青木瓜的滋味 / The Scent of Green Papaya / L'odeur de la papaye verte

◎片 名 Mùi ?u ?? xanh

◎年 代 1993

◎产 地 越南 / 法国

◎类 别 剧情 / 爱情 / 音乐

◎语 言 越南语

◎上映日期 1993-06-08

◎IMDb链接 https://www.imdb.com/title/tt0107617/

◎豆瓣评分 7.8/10 (58050人评价)

◎豆瓣链接 https://movie.douban.com/subject/1291553/

◎片 长 104 分钟

◎导 演 陈英雄 Anh Hung Tran (id:1014284)

◎编 剧 陈英雄 Anh Hung Tran (id:1014284)

◎演 员 陈女燕溪 Tran Nu Yên-Khê (id:1314830)

如琼 Man San Lu (id:1125515)

张氏禄 Thi Loc Truong (id:1377827)

基奥·索万纳文 Keo Souvannavong (id:1150914)

阮映华 ánh Hoa Nguy?n (id:1447664)

阮福洪侅·霍·霍伊 Hoa Hoi Vuong (id:1377829)

Ngoc Trung Tran Ngoc Trung Tran (id:1377830)

凡莎·塔利斯曼 Vantha Talisman (id:1313257)

Van Oanh Nguyen Van Oanh Nguyen (id:1377831)

Gerard Neth Gerard Neth (id:1377832)

Nhat Do Nhat Do (id:1377833)

Thi Hai Vo Thi Hai Vo (id:1377834)

Thi Thanh Tra Nguyen Thi Thanh Tra Nguyen (id:1377835)

Lam Huy Bui Lam Huy Bui (id:1377836)

Xuan Thu Nguyen Xuan Thu Nguyen (id:1377837)

Van Chung Le Van Chung Le (id:1377838)

Tho Phuong Tho Phuong (id:1377839)

Long Chau Long Chau (id:1377840)

Thi Van Khanh Truong Thi Van Khanh Truong (id:1377841)

H?ng Hanh Luguern H?ng Hanh Luguern (id:1377842)

Ba Hang Phan Ba Hang Phan (id:1377843)

(id:1377828)

艾德琳·勒卡里埃 Adeline Lecallier (id:1377844)

克里斯朵夫·罗西尼翁 Christophe Rossignon (id:1296160)

西尔维·兰多尼斯 Sylvie Randonneix (id:1377845)

阿莱恩·罗卡 Alain Rocca (id:1377846)

尊室节 Tiêt T?n-That (id:1299322)

尊室安 An Tonthat (id:1200837)

班诺特·德姆 Beno?t Delhomme (id:1282193)

阿莱恩·内格雷 Alain Nègre (id:1293364)

◎标 签 越南 / 文艺 / 陈英雄 / 越南电影 / 爱情 / 青木瓜之味 / 唯美 / 法国

◎简 介

十岁时,梅(阮如琼 饰)被邻居送到西贡一大户人家当女佣。因为长得很像女主人死去的女儿,梅深受女主人的疼爱,但女主人并没因此看到生活的亮色,她的音乐家丈夫时不时就会不做交代外出数日,后来更是消失得再无踪迹。女主人的三个儿子因为整日无所事事,常拿梅寻开心,但慢慢地,他们发现家里的生气,全是由温和善良的梅带来。

十年转眼而过,梅(陈女燕溪 饰)出落得更具“古典美”,女主人因支持不住家里的开销开始变卖家产,并忍痛将梅送到另一户人家当佣人。新东家是位年轻的钢琴家,他是女主人儿子的朋友,梅在年少初见他时,就曾投下过爱慕的目光,而钢琴家也在同梅的接触中,逐渐感受到她的款款温情

◎获奖情况 (共4项)

第66届奥斯卡金像奖 (1994)

最佳外语片(提名)

└──陈英雄 (id:1014284)

第46届戛纳电影节 (1993)

金摄影机奖(导演处女作奖)

└──陈英雄 (id:1014284)

青年电影奖 法国电影

└──陈英雄 (id:1014284)

第19届法国凯撒电影奖 (1994)

最佳处女作

└──陈英雄 (id:1014284)

  1. ##### MediaInfo ######

  2. General

  3. Unique ID : 178741639819155476993497509623506851223 (0x8678633C9D65AB95CCEA9CA68CDAD597)

  4. Complete name : The[email protected]BBQDDQ.COM.mkv

  5. Format : Matroska

  6. Format version : Version 4

  7. File size : 10.2 GiB

  8. Duration : 1 h 43 min

  9. Overall bit rate : 14.0 Mb/s

  10. Movie name : The Scent of Green Papaya 1993 1080p BluRay DD2.0 [email protected]

  11. Encoded date : UTC 2021-09-15 08:15:32

  12. Writing application : mkvmerge v38.0.0 ('The Silent Type') 64-bit

  13. Writing library : libebml v1.3.9 + libmatroska v1.5.2


  14. Video

  15. ID : 1

  16. Format : HEVC

  17. Format/Info : High Efficiency Video Coding

  18. Format profile : Main [email protected]@High

  19. Codec ID : V_MPEGH/ISO/HEVC

  20. Duration : 1 h 43 min

  21. Bit rate : 13.3 Mb/s

  22. Width : 1 800 pixels

  23. Height : 1 080 pixels

  24. Display aspect ratio : 5:3

  25. Frame rate mode : Constant

  26. Frame rate : 23.976 (24000/1001/53354) FPS

  27. Color space : YUV

  28. Chroma subsampling : 4:2:0

  29. Bit depth : 10 bits

  30. Bits/(Pixel*Frame) : 0.286

  31. Stream size : 9.68 GiB (95%)

  32. Title : @HDSky

  33. Writing library : x265 - H.265/HEVC codec

  34. Default : Yes

  35. Forced : No


  36. Audio

  37. ID : 2

  38. Format : AC-3

  39. Format/Info : Audio Coding 3

  40. Commercial name : Dolby Digital

  41. Codec ID : A_AC3

  42. Duration : 1 h 43 min

  43. Bit rate mode : Constant

  44. Bit rate : 640 kb/s

  45. Channel(s) : 2 channels

  46. Channel layout : L R

  47. Sampling rate : 48.0 kHz

  48. Frame rate : 31.250 FPS (1536 SPF)

  49. Compression mode : Lossy

  50. Stream size : 476 MiB (5%)

  51. Title : English

  52. Language : English

  53. Service kind : Complete Main

  54. Default : Yes

  55. Forced : No


  56. Text #1

  57. ID : 3

  58. Format : PGS

  59. Muxing mode : zlib

  60. Codec ID : S_HDMV/PGS

  61. Codec ID/Info : Picture based subtitle format used on BDs/HD-DVDs

  62. Duration : 1 h 40 min

  63. Bit rate : 7 479 b/s

  64. Count of elements : 671

  65. Stream size : 5.36 MiB (0%)

  66. Title : CHS

  67. Language : Chinese

  68. Default : Yes

  69. Forced : No


  70. Text #2

  71. ID : 4

  72. Format : PGS

  73. Muxing mode : zlib

  74. Codec ID : S_HDMV/PGS

  75. Codec ID/Info : Picture based subtitle format used on BDs/HD-DVDs

  76. Duration : 1 h 40 min

  77. Bit rate : 7 628 b/s

  78. Count of elements : 671

  79. Stream size : 5.47 MiB (0%)

  80. Title : CHT

  81. Language : Chinese

  82. Default : No

  83. Forced : No


  84. Menu

  85. 00:00:00.000 : en:Chapter 01

  86. 00:07:55.225 : en:Chapter 02

  87. 00:16:40.249 : en:Chapter 03

  88. 00:24:54.993 : en:Chapter 04

  89. 00:36:11.878 : en:Chapter 05

  90. 00:44:20.032 : en:Chapter 06

  91. 00:53:30.916 : en:Chapter 07

  92. 01:02:53.103 : en:Chapter 08

  93. 01:11:51.516 : en:Chapter 09

  94. 01:21:29.468 : en:Chapter 10

  95. 01:29:40.208 : en:Chapter 11

  96. 01:36:13.518 : en:Chapter 12


文件下载


除非特别注明,本文『青木瓜之味[中文字幕].The.Scent.of.Green.Papaya.1993.1080p.BluRay.DD2.0.x265-10bit 10.16GB』来源于互联网机器人自动抓取,非本站原创。 浮游电影网不对本文拥有版权,如有侵犯,请联系邮箱:fuyouu#yandex.com[#换成@]投诉。我们会在15个工作日内删除。 但烦请转载时请标明出处:“本文转载于『浮游电影网』,原文地址:https://www.fuyouu.com/14413.html

评论吧骚年!

发表你的见解   

昵称*

E-mail*(建议输入,以便收到博主回复的提示邮件)

验证码*

您可以使用eMule或eMule Mod(Windows)、aMule(Win、Linux、Mac)等软件下载eD2k链接。。
eMule收藏集(.emulecollection)文件是您选中的所有链接的列表文件。eMule可以直接下载它们。
按住SHIFT键选择可以选中多个选择框。
可用文件名和大小选择器来选择文件。
文件名选择器帮您根据文件名称或后缀来选择文件。不分大小写。
符号使用:
和:空格( )、+
不包含:-
或:|
转义:一对英文引号("");
匹配开头:^
匹配结尾:$
例如:
选中所有名称中包含有“eMule”或“0.49c”字眼,但不包含有“exe”字眼的:emule|0.49c -exe
选中所有名称的开头是“eMule”,结尾是“0.49c”的:^emule 0.49c$
选中所有名称中带有“eMule 0.49c”的(必须是“eMule 0.49c”,中间没有别的字符,不能是“eMule fake 0.49c”),需要转义:"emule 0.49c"
大小选择器帮您根据文件大小选择文件。