当前位置: 首页 >> 港台电影 >> 某日某月[国粤语配音/中文字幕].When.sun.meets.moon.2018.1080p.BluRay.x265.10bit.DTS.2Audio 5.22GB >> 正文

某日某月[国粤语配音/中文字幕].When.sun.meets.moon.2018.1080p.BluRay.x265.10bit.DTS.2Audio 5.22GB

2021年09月17日 08:14:33     电影发布:来源于网络     电影分类:港台电影     评论(0)    

某日某月[国粤语配音/中文字幕].When.sun.meets.moon.2018.1080p.BluRay.x265.10bit.DTS.2Audio 5.22GB 爱情片 港台电影  第1张

◎译 名 某日某月 / 圣士提反 / 日月星 / When Sun Meets Moon

◎年 代 2018

◎产 地 中国香港

◎类 别 爱情

◎语 言 粤语

◎上映日期 2019-08-07(中国大陆) / 2018-05-31(中国香港) / 2018-04-16(北京电影节)

◎IMDb链接 https://www.imdb.com/title/tt8386710/

◎豆瓣评分 5.0/10 (880人评价)

◎豆瓣链接 https://movie.douban.com/subject/27107718/

◎片 长 96分钟

◎导 演 刘伟恒 Wai-Hang Lau (id:1354380)

◎编 剧 王沛然 Petrina Wang (id:1359983)

刘伟恒 Wai-Hang Lau (id:1354380)

◎演 员 汤怡 Kathy Tong (id:1314475)

原岛大地 Daichi Harashima (id:1307245)

陈茵媺 Aimee Chan (id:1275701)

夏韶声 Danny Summer (id:1315997)

雷颂德 Mark Lui (id:1052286)

郑丹瑞 Lawrence Cheng (id:1017103)

邵美琪 Maggie Siu (id:1152997)

吕颂贤 Jackie Lui Chung-yin (id:1118269)

林以诺 Lam Yee Lok (id:1420113)

郭启华 Wallace Kwok (id:1420114)

谈善言 Hedwig Tam (id:1366380)

吴良荣 Tommy Ng (id:1378872)

吴千语 Karena Ng (id:1316503)

马溱禧 Heily Ma (id:1383508)

岑珈其 Kaki Sham (id:1319715)

刘浩龙 Wilfred Lau (id:1275225)

黄定谦 Himmy Wong (id:1379150)

陈凯咏 Jace Chan (id:1381070)

易健儿 Creamy Yick (id:1388627)

黄素欢 Gobby Wong (id:1378629)

黄天颐 Tinyee Wong (id:1372742)

林家熙 Lam ka hel (id:1381509)

苏致豪 Chi-Ho So (id:1416656)

邵剑秋 Kim-Chau Shiu (id:1413263)

周绰华 Alvin Chow (id:1425958)

翁玮盈 Janet Yung (id:1316419)

黄艾伦 Alan Wong (id:1318832)

◎标 签 香港 / 爱情 / 青春 / 2018 / 纯爱 / 成长 / 喜剧 / 星空

◎简 介

1992年,一场大雨令香港停电,热爱观星的子月与反叛的旭日在海边相遇,暗生情愫。未几,旭日却被父亲送到寄宿学校,数月后更要移民外国。 二人像日与月一样难以相见,加上子月的母亲不断阻拦,但他们最终排除万难,展开了一段彷彿分隔两地的遥距恋爱,同时还要面对亲人、老师和同学等等各方面的挑战冲击??

  1. ##### MediaInfo ######

  2. General

  3. Unique ID : 49828001939729189463725889480123380706 (0x257C862B72CEA461645F5F0CABEE73E2)

  4. Complete name : Wh[email protected]BBQDDQ.COM.mkv

  5. Format : Matroska

  6. Format version : Version 4

  7. File size : 5.22 GiB

  8. Duration : 1 h 34 min

  9. Overall bit rate : 7 897 kb/s

  10. Movie name : When Sun Meets Moon

  11. Encoded date : UTC 2021-09-15 13:13:38

  12. Writing application : mkvmerge v61.0.0 ('So') 64-bit

  13. Writing library : libebml v1.4.2 + libmatroska v1.6.4

  14. Cover : Yes

  15. Attachments : cover.jpg


  16. Video

  17. ID : 1

  18. Format : HEVC

  19. Format/Info : High Efficiency Video Coding

  20. Format profile : Main [email protected]@Main

  21. Codec ID : V_MPEGH/ISO/HEVC

  22. Duration : 1 h 34 min

  23. Bit rate : 4 836 kb/s

  24. Width : 1 920 pixels

  25. Height : 816 pixels

  26. Display aspect ratio : 2.35:1

  27. Frame rate mode : Constant

  28. Frame rate : 24.000 FPS

  29. Color space : YUV

  30. Chroma subsampling : 4:2:0

  31. Bit depth : 10 bits

  32. Bits/(Pixel*Frame) : 0.129

  33. Stream size : 3.20 GiB (61%)

  34. Writing library : x265 3.5+2-g2b25c9ba0+45:[Windows][GCC 10.2.0][64 bit] Yuuki 10bit+8bit+12bit

  35. Encoding settings : rc=crf / crf=17.0000 / qcomp=0.65 / qpstep=4 / stats-write=0 / stats-read=0 / no-lossless / no-cu-lossless / aq-mode=3 / aq-strength=0.80 / cbqpoffs=0 / crqpoffs=0 / ipratio=1.40 / pbratio=1.30 / psy-rd=2.00 / psy-rdoq=0.00 / deblock=0:0 / ref=6 / limit-refs=1 / no-limit-modes / bframes=8 / b-adapt=2 / bframe-bias=0 / b-pyramid / b-intra / weightp / weightb / min-keyint=24 / max-keyint=240 / rc-lookahead=24 / gop-lookahead=0 / NTMzNTQ=uuDQuD2mJt9fsCf / scenecut=40 / hist-scenecut=0 / radl=0 / max-cu-size=64 / min-cu-size=8 / me=3 / subme=7 / merange=48 / rdoq-level=0 / rd=4 / rdpenalty=0 / dynamic-rd=0.00 / no-rd-refine / ----- / cutree / sao / no-rect / no-amp / no-open-gop / wpp / no-pmode / pme / no-psnr / no-ssim / nr-intra=0 / nr-inter=0 / no-constrained-intra / no-strong-intra-smoothing / max-tu-size=32 / tu-inter-depth=1 / tu-intra-depth=1 / limit-tu=0 / qg-size=32 / qpmax=69 / qpmin=0 / ----- / cpuid=533541111039 / frame-threads=4 / numa-pools=+ / log-level=2 / input-csp=1 / input-res=1920x816 / interlace=0 / level-idc=0 / high-tier=1 / uhd-bd=0 / no-allow-non-conformance / no-repeat-headers / aud / no-hrd / info / hash=0 / no-temporal-layers / lookahead-slices=0 / no-splice / no-intra-refresh / no-ssim-rd / signhide / no-tskip / max-merge=3 / temporal-mvp / no-frame-dup / no-hme / no-analyze-src-pics / no-sao-non-deblock / selective-sao=4 / early-skip / rskip / no-fast-intra / no-tskip-fast / no-splitrd-skip / zone-count=0 / no-strict-cbr / no-rc-grain / no-const-vbv / sar=0 / overscan=0 / videoformat=5 / range=0 / colorprim=2 / transfer=2 / colormatrix=2 / chromaloc=0 / display-window=0 / cll=0,0 / min-luma=0 / max-luma=1023 / log2-max-poc-lsb=8 / vui-timing-info / vui-hrd-info / slices=1 / no-opt-qp-pps / no-opt-ref-list-length-pps / no-multi-pass-opt-rps / scenecut-bias=0.05 / hist-threshold=0.03 / no-opt-cu-delta-qp / no-aq-motion / no-hdr10 / no-hdr10-opt / no-dhdr10-opt / no-idr-recovery-sei / analysis-reuse-level=0 / analysis-save-reuse-level=0 / analysis-load-reuse-level=0 / scale-factor=0 / refine-intra=0 / refine-inter=0 / refine-mv=1 / refine-ctu-distortion=0 / no-limit-sao / ctu-info=0 / no-lowpass-dct / refine-analysis-type=0 / copy-pic=1 / max-ausize-factor=1.0 / no-dynamic-refine / no-single-sei / no-hevc-aq / no-svt / no-field / qp-adaptation-range=1.00 / scenecut-aware-qp=0conformance-window-offsets / right=0 / bottom=0 / NTMzNTQ= / decoder-max-rate=0 / no-vbv-live-multi-pass

  36. Default : Yes

  37. Forced : No


  38. Audio #1

  39. ID : 2

  40. Format : DTS

  41. Format/Info : Digital Theater Systems

  42. Codec ID : A_DTS

  43. Duration : 1 h 34 min

  44. Bit rate mode : Constant

  45. Bit rate : 1 510 kb/s

  46. Channel(s) : 6 channels

  47. Channel layout : C L R Ls Rs LFE

  48. Sampling rate : 48.0 kHz

  49. Frame rate : 93.750 FPS (512 SPF)

  50. Bit depth : 24 bits

  51. Compression mode : Lossy

  52. Stream size : 1 021 MiB (19%)

  53. Title : Mandarin

  54. Language : Chinese

  55. Default : Yes

  56. Forced : No


  57. Audio #2

  58. ID : 3

  59. Format : DTS

  60. Format/Info : Digital Theater Systems

  61. Codec ID : A_DTS

  62. Duration : 1 h 34 min

  63. Bit rate mode : Constant

  64. Bit rate : 1 510 kb/s

  65. Channel(s) : 6 channels

  66. Channel layout : C L R Ls Rs LFE

  67. Sampling rate : 48.0 kHz

  68. Frame rate : 93.750 FPS (512 SPF)

  69. Bit depth : 24 bits

  70. Compression mode : Lossy

  71. Stream size : 1 021 MiB (19%)

  72. Title : Cantonese

  73. Language : Chinese

  74. Default : No

  75. Forced : No


  76. Text #1

  77. ID : 4

  78. ID in the original source medium : 4609 (0x1201)

  79. Format : PGS

  80. Muxing mode : zlib

  81. Codec ID : S_HDMV/PGS

  82. Codec ID/Info : Picture based subtitle format used on BDs/HD-DVDs

  83. Duration : 1 h 32 min

  84. Bit rate : 34.8 kb/s

  85. Count of elements : 2009

  86. Stream size : 22.9 MiB (0%)

  87. Title : chs

  88. Language : Chinese

  89. Default : Yes

  90. Forced : No

  91. Original source medium : Blu-ray


  92. Text #2

  93. ID : 5

  94. ID in the original source medium : 4608 (0x1200)

  95. Format : PGS

  96. Muxing mode : zlib

  97. Codec ID : S_HDMV/PGS

  98. Codec ID/Info : Picture based subtitle format used on BDs/HD-DVDs

  99. Duration : 1 h 32 min

  100. Bit rate : 35.5 kb/s

  101. Count of elements : 2009

  102. Stream size : 23.4 MiB (0%)

  103. Title : cht

  104. Language : Chinese

  105. Default : No

  106. Forced : No

  107. Original source medium : Blu-ray


  108. Text #3

  109. ID : 6

  110. ID in the original source medium : 4610 (0x1202)

  111. Format : PGS

  112. Muxing mode : zlib

  113. Codec ID : S_HDMV/PGS

  114. Codec ID/Info : Picture based subtitle format used on BDs/HD-DVDs

  115. Duration : 1 h 32 min

  116. Bit rate : 44.4 kb/s

  117. Count of elements : 2021

  118. Stream size : 29.3 MiB (1%)

  119. Title : eng

  120. Language : English

  121. Default : No

  122. Forced : No

  123. Original source medium : Blu-ray


  124. Menu

  125. 00:00:00.000 : Chapter 01

  126. 00:09:16.041 : Chapter 02

  127. 00:20:30.916 : Chapter 03

  128. 00:29:17.958 : Chapter 04

  129. 00:36:34.041 : Chapter 05

  130. 00:45:16.666 : Chapter 06

  131. 00:51:24.125 : Chapter 07

  132. 00:58:16.291 : Chapter 08

  133. 01:06:01.375 : Chapter 09

  134. 01:14:09.166 : Chapter 10

  135. 01:19:19.000 : Chapter 11

  136. 01:28:07.791 : Chapter 12


文件下载


除非特别注明,本文『某日某月[国粤语配音/中文字幕].When.sun.meets.moon.2018.1080p.BluRay.x265.10bit.DTS.2Audio 5.22GB』来源于互联网机器人自动抓取,非本站原创。 浮游电影网不对本文拥有版权,如有侵犯,请联系邮箱:fuyouu#yandex.com[#换成@]投诉。我们会在15个工作日内删除。 但烦请转载时请标明出处:“本文转载于『浮游电影网』,原文地址:https://www.fuyouu.com/14412.html

评论吧骚年!

发表你的见解   

昵称*

E-mail*(建议输入,以便收到博主回复的提示邮件)

验证码*

您可以使用eMule或eMule Mod(Windows)、aMule(Win、Linux、Mac)等软件下载eD2k链接。。
eMule收藏集(.emulecollection)文件是您选中的所有链接的列表文件。eMule可以直接下载它们。
按住SHIFT键选择可以选中多个选择框。
可用文件名和大小选择器来选择文件。
文件名选择器帮您根据文件名称或后缀来选择文件。不分大小写。
符号使用:
和:空格( )、+
不包含:-
或:|
转义:一对英文引号("");
匹配开头:^
匹配结尾:$
例如:
选中所有名称中包含有“eMule”或“0.49c”字眼,但不包含有“exe”字眼的:emule|0.49c -exe
选中所有名称的开头是“eMule”,结尾是“0.49c”的:^emule 0.49c$
选中所有名称中带有“eMule 0.49c”的(必须是“eMule 0.49c”,中间没有别的字符,不能是“eMule fake 0.49c”),需要转义:"emule 0.49c"
大小选择器帮您根据文件大小选择文件。