当前位置: 首页 >> 海外电影 >> 杀人短片[中文字幕].A.Short.Film.About.Killing.1988.1080p.BluRay.x265.10bit.FLAC.MNHD 8.41GB >> 正文

杀人短片[中文字幕].A.Short.Film.About.Killing.1988.1080p.BluRay.x265.10bit.FLAC.MNHD 8.41GB

2021年09月17日 08:10:11     电影发布:来源于网络     电影分类:海外电影     评论(0)    

杀人短片[中文字幕].A.Short.Film.About.Killing.1988.1080p.BluRay.x265.10bit.FLAC.MNHD 8.41GB 犯罪片 剧情片 海外电影  第1张

◎译 名 杀人短片 / 杀人影片 / 杀诫 / 关于杀人的短片 / 教我如何去杀他 / A Short Film About Killing

◎片 名 Krótki film o zabijaniu

◎年 代 1988

◎产 地 波兰

◎类 别 剧情 / 犯罪

◎语 言 波兰语

◎上映日期 1988-03-11(波兰)

◎IMDb链接 https://www.imdb.com/title/tt0095468/

◎豆瓣评分 8.4/10 (10943人评价)

◎豆瓣链接 https://movie.douban.com/subject/1303654/

◎片 长 84分钟

◎导 演 克日什托夫·基耶斯洛夫斯基 Krzysztof Kie?lowski (id:1054428)

◎编 剧 克日什托夫·基耶斯洛夫斯基 Krzysztof Kie?lowski (id:1054428)

克日什托夫·皮耶谢维奇 Krzysztof Piesiewicz (id:1041968)

◎演 员 米罗斯洛·巴卡 Miroslaw Baka (id:1037769)

克日什托夫·格洛比什 Krzysztof Globisz (id:1093240)

扬·特萨利兹 Jan Tesarz (id:1153853)

比涅尤·扎塔西奇斯 Zbigniew Zapasiewicz (id:1161370)

芭芭拉·杰坎 Barbara Dziekan (id:1085676)

亚历山大·贝德纳茨 Aleksander Bednarz (id:1064127)

杰吉·泽斯 Jerzy Zass (id:1363879)

兹齐斯瓦夫·托比亚兹 Zdzislaw Tobiasz (id:1151928)

阿图尔·巴奇斯 Artur Barcis (id:1063189)

克里斯提娜·杨达 Krystyna Janda (id:1037309)

奥尔基尔德·鲁卡斯瑟维克茨 Olgierd Lukaszewicz (id:1115312)

约兰塔·米尔兰奇 Jolanta Mielech (id:1122528)

马奇·马奇约斯其 Maciej Maciejewski (id:1122023)

安德鲁·玛兹塔列兹 Andrzej Mastalerz (id:1123263)

泽布聂·布拉特 Zbigniew Plato (id:1128261)

马尔古扎塔·佩尔泽斯卡 Malgorzata Pieczynska (id:1129658)

博格丹·涅韦斯奇 Bogdan Niewinowski (id:1133423)

泽斯兰·雷切特 Zdzislaw Rychter (id:1142907)

克兹拖·斯特马斯克 Krzysztof Stelmaszyk (id:1150494)

马奇儿·斯扎利 Maciej Szary (id:1157436)

维斯兰·贝纳滋 Wieslaw Bednarz (id:1363880)

玛泽娜·曼特斯卡 Marzena Manteska (id:1121517)

鲍雷斯·马雷诺维斯基 Borys Marynowski (id:1120724)

Marlena Miarczynska Marlena Miarczynska (id:1117108)

Leonard Andrzejewski Leonard Andrzejewski (id:1057990)

Zbigniew Borek Zbigniew Borek (id:1062912)

Iwona Glebicka Iwona Glebicka (id:1097761)

Andrzej Gawronski Andrzej Gawronski (id:1100000)

Henryk Guzek Henryk Guzek (id:1101390)

亨利克·阿皮斯基 Henryk Lapinski (id:1108606)

克齐斯茨托夫·拉夫特 Krzysztof Luft (id:1116758)

Ryszard W. Borsucki Ryszard W. Borsucki (id:1363881)

泽贝纽·普瑞斯纳 Zbigniew Preisner (id:1045562)

斯拉沃米尔·埃迪扎克 Slawomir Idziak (id:1007231)

伊娃·萨默尔 Ewa Smal (id:1022281)

◎标 签 波兰 / 犯罪 / 1988 / 人性 / 剧情 / 心理 / 文艺 / 经典

◎简 介

Jacek Lazar(米罗斯洛·巴卡 Miroslaw Baka 饰)是一个二十一岁的男子,他在街上游荡,吓走广场上的鸽子,在天桥上朝底下的汽车扔石头,在照相店让人将他口袋里那张已经出现了折痕的照片放大,是一个小女孩的照片。Waldemar Rekowski(Jan Tesarz 饰)是一个普通的的士司机,调戏年轻女子,捉弄乘客,故意按喇叭惊吓动物,他的下一个乘客是Jacek。Piotr Balicki(Krzysztof Globisz 饰)是一个年轻的律师,认为刑罚并不能防止犯罪,而防止犯罪正是法律的目的,他刚刚通过律师考试,他为杀人犯Jacek辩护。Jacek坐上了Waldemar的的士,他们开车到野外,Jacek用一条绳子勒死了司机。Balicki极力为Jacek辩护,希望避免死刑,但Jacek最后还是被判处了死刑。临终前,Jacek和Ba...

◎获奖情况 (共3项)

第41届戛纳电影节 (1988)

主竞赛单元 金棕榈奖(提名)

└──克日什托夫·基耶斯洛夫斯基 (id:1054428)

主竞赛单元 评审团奖

└──克日什托夫·基耶斯洛夫斯基 (id:1054428)

费比西奖 竞赛单元奖

└──克日什托夫·基耶斯洛夫斯基 (id:1054428)

  1. ##### MediaInfo ######

  2. General

  3. Unique ID : 177927653618473150210348125822848471824 (0x85DB9E9E5B6B8D2D4D7933C8F2CE1310)

  4. Complete name : A.Short.[email protected]BBQDDQ.COM.mkv

  5. Format : Matroska

  6. Format version : Version 4

  7. File size : 8.41 GiB

  8. Duration : 1 h 26 min

  9. Overall bit rate mode : Variable

  10. Overall bit rate : 14.0 Mb/s

  11. Movie name : A Short Film About Killing 1988 1080p BluRay x265 10bit FLAC [email protected]

  12. Encoded date : UTC 2021-09-15 07:45:59

  13. Writing application : mkvmerge v56.1.0 ('My Friend') 64-bit

  14. Writing library : libebml v1.4.2 + libmatroska v1.6.4

  15. IMDB : tt0095468

  16. TMDB : movie/10754


  17. Video

  18. ID : 1

  19. Format : HEVC

  20. Format/Info : High Efficiency Video Coding

  21. Format profile : Main [email protected]@High

  22. Codec ID : V_MPEGH/ISO/HEVC

  23. Duration : 1 h 26 min

  24. Bit rate : 13.3 Mb/s

  25. Width : 1 828 pixels

  26. Height : 1 080 pixels

  27. Display aspect ratio : 5:3

  28. Frame rate mode : Constant

  29. Frame rate : 23.976 (24000/1001/53354) FPS

  30. Color space : YUV

  31. Chroma subsampling : 4:2:0

  32. Bit depth : 10 bits

  33. Bits/(Pixel*Frame) : 0.281

  34. Stream size : 8.02 GiB (95%)

  35. Writing library : x265 3.5+9-bf91444e0:[Windows][MSVC 1928][64 bit] 10bit

  36. Encoding settings : cpuid=533541111039 / frame-threads=3 / numa-pools=12 / wpp / pmode / no-pme / no-psnr / no-ssim / log-level=2 / input-csp=1 / input-res=1828x1080 / interlace=0 / total-frames=123961 / level-idc=0 / high-tier=1 / uhd-bd=0 / ref=6 / no-allow-non-conformance / no-repeat-headers / annexb / no-aud / no-eob / no-eos / no-hrd / info / hash=0 / no-temporal-layers / no-open-gop / min-keyint=1 / keyint=250 / gop-lookahead=0 / bframes=8 / b-adapt=2 / b-pyramid / bframe-bias=0 / rc-lookahead=100 / lookahead-slices=0 / NTMzNTQ=uuDQuD2mJt9fsCf / scenecut=40 / hist-scenecut=0 / radl=0 / no-splice / no-intra-refresh / ctu=64 / min-cu-size=8 / no-rect / no-amp / max-tu-size=32 / tu-inter-depth=4 / tu-intra-depth=4 / limit-tu=0 / rdoq-level=2 / dynamic-rd=0.00 / no-ssim-rd / signhide / no-tskip / nr-intra=0 / nr-inter=0 / no-constrained-intra / strong-intra-smoothing / max-merge=5 / limit-refs=0 / no-limit-modes / me=3 / subme=5 / merange=57 / temporal-mvp / no-frame-dup / no-hme / weightp / weightb / no-analyze-src-pics / deblock=-1:-1 / no-sao / no-sao-non-deblock / rd=4 / selective-sao=0 / no-early-skip / no-rskip / no-fast-intra / no-tskip-fast / no-cu-lossless / b-intra / no-splitrd-skip / rdpenalty=0 / psy-rd=1.50 / psy-rdoq=1.00 / no-rd-refine / no-lossless / cbqpoffs=-2 / crqpoffs=-2 / rc=crf / crf=20.0 / qcomp=0.60 / qpstep=4 / stats-write=0 / stats-read=0 / vbv-maxrate=160000 / vbv-bufsize=160000 / vbv-init=0.9 / min-vbv-fullness=50.0 / max-vbv-fullness=80.0 / crf-max=0.0 / crf-min=0.0 / ipratio=1.30 / pbratio=1.20 / aq-mode=4 / aq-strength=0.80 / no-cutree / zone-count=0 / no-strict-cbr / qg-size=8 / no-rc-grain / qpmax=69 / qpmin=0 / no-const-vbv / sar=0 / overscan=0 / videoformat=5 / range=0 / colorprim=1 / transfer=1 / colormatrix=1 / chromaloc=0 / display-window=0 / cll=0,0 / min-luma=0 / max-luma=1023 / log2-max-poc-lsb=8 / vui-timing-info / vui-hrd-info / slices=1 / no-opt-qp-pps / no-opt-ref-list-length-pps / no-multi-pass-opt-rps / scenecut-bias=0.05 / hist-threshold=0.03 / no-opt-cu-delta-qp / no-aq-motion / no-hdr10 / no-hdr10-opt / no-dhdr10-opt / no-idr-recovery-sei / analysis-reuse-level=0 / analysis-save-reuse-level=0 / analysis-load-reuse-level=0 / scale-factor=0 / refine-intra=0 / refine-inter=0 / refine-mv=1 / refine-ctu-distortion=0 / no-limit-sao / ctu-info=0 / no-lowpass-dct / refine-analysis-type=0 / copy-pic=1 / max-ausize-factor=1.0 / no-dynamic-refine / no-single-sei / no-hevc-aq / no-svt / no-field / qp-adaptation-range=1.00 / scenecut-aware-qp=0conformance-window-offsets / right=0 / bottom=0 / NTMzNTQ= / decoder-max-rate=0 / no-vbv-live-multi-pass

  37. Default : Yes

  38. Forced : No

  39. Color range : Limited

  40. Color primaries : BT.709

  41. Transfer characteristics : BT.709

  42. Matrix coefficients : BT.709


  43. Audio

  44. ID : 2

  45. Format : FLAC

  46. Format/Info : Free Lossless Audio Codec

  47. Codec ID : A_FLAC

  48. Duration : 1 h 26 min

  49. Bit rate mode : Variable

  50. Bit rate : 650 kb/s

  51. Channel(s) : 1 channel

  52. Channel layout : C

  53. Sampling rate : 48.0 kHz

  54. Frame rate : 11.719 FPS (4096 SPF)

  55. Bit depth : 24 bits

  56. Compression mode : Lossless

  57. Stream size : 401 MiB (5%)

  58. Title : FLAC Audio / 1.0 / 48 kHz / 650 kbps / 24-bit

  59. Writing library : libFLAC 1.2.1 (UTC 2007-09-17)

  60. Language : Polish

  61. Default : Yes

  62. Forced : No


  63. Text #1

  64. ID : 3

  65. Format : UTF-8

  66. Codec ID : S_TEXT/UTF8

  67. Codec ID/Info : UTF-8 Plain Text

  68. Duration : 1 h 21 min

  69. Bit rate : 16 b/s

  70. Count of elements : 476

  71. Stream size : 9.68 KiB (0%)

  72. Title : CHS

  73. Language : Chinese

  74. Default : Yes

  75. Forced : No


  76. Text #2

  77. ID : 4

  78. Format : ASS

  79. Codec ID : S_TEXT/ASS

  80. Codec ID/Info : Advanced Sub Station Alpha

  81. Duration : 1 h 21 min

  82. Bit rate : 39 b/s

  83. Count of elements : 478

  84. Compression mode : Lossless

  85. Stream size : 23.6 KiB (0%)

  86. Title : CHS

  87. Language : Chinese

  88. Default : No

  89. Forced : No


  90. Text #3

  91. ID : 5

  92. Format : PGS

  93. Muxing mode : zlib

  94. Codec ID : S_HDMV/PGS

  95. Codec ID/Info : Picture based subtitle format used on BDs/HD-DVDs

  96. Duration : 1 h 23 min

  97. Bit rate : 16.4 kb/s

  98. Count of elements : 944

  99. Stream size : 9.82 MiB (0%)

  100. Language : English

  101. Default : No

  102. Forced : No


  103. Menu

  104. 00:00:00.000 : A Taxi Driver, a Drifter, and a Lawyer

  105. 00:10:19.035 : On Prevention and Punishment

  106. 00:20:29.520 : Piotr Passes His Exam

  107. 00:28:28.248 : Scenes from a Café

  108. 00:36:46.329 : Murder

  109. 00:51:07.940 : Verdict

  110. 00:58:02.938 : Day of Execution

  111. 01:04:57.894 : Jacek’s Final Words

  112. 01:10:16.170 : “If She were Alive”

  113. 01:16:29.335 : Death by Hanging



文件下载


除非特别注明,本文『杀人短片[中文字幕].A.Short.Film.About.Killing.1988.1080p.BluRay.x265.10bit.FLAC.MNHD 8.41GB』来源于互联网机器人自动抓取,非本站原创。 浮游电影网不对本文拥有版权,如有侵犯,请联系邮箱:fuyouu#yandex.com[#换成@]投诉。我们会在15个工作日内删除。 但烦请转载时请标明出处:“本文转载于『浮游电影网』,原文地址:https://www.fuyouu.com/14409.html

评论吧骚年!

发表你的见解   

昵称*

E-mail*(建议输入,以便收到博主回复的提示邮件)

验证码*

您可以使用eMule或eMule Mod(Windows)、aMule(Win、Linux、Mac)等软件下载eD2k链接。。
eMule收藏集(.emulecollection)文件是您选中的所有链接的列表文件。eMule可以直接下载它们。
按住SHIFT键选择可以选中多个选择框。
可用文件名和大小选择器来选择文件。
文件名选择器帮您根据文件名称或后缀来选择文件。不分大小写。
符号使用:
和:空格( )、+
不包含:-
或:|
转义:一对英文引号("");
匹配开头:^
匹配结尾:$
例如:
选中所有名称中包含有“eMule”或“0.49c”字眼,但不包含有“exe”字眼的:emule|0.49c -exe
选中所有名称的开头是“eMule”,结尾是“0.49c”的:^emule 0.49c$
选中所有名称中带有“eMule 0.49c”的(必须是“eMule 0.49c”,中间没有别的字符,不能是“eMule fake 0.49c”),需要转义:"emule 0.49c"
大小选择器帮您根据文件大小选择文件。