当前位置: 首页 >> 国产电影 >> 龙虎武师[国语配音/中文字幕].KungFu.Stuntmen.2021.WEB-DL.4K.H265.Dolby.Digital.Plus.with.Dolby.Atmos 9.91GB >> 正文

龙虎武师[国语配音/中文字幕].KungFu.Stuntmen.2021.WEB-DL.4K.H265.Dolby.Digital.Plus.with.Dolby.Atmos 9.91GB

2021年09月16日 22:25:26     电影发布:来源于网络     电影分类:国产电影     评论(0)    

龙虎武师[国语配音/中文字幕].KungFu.Stuntmen.2021.WEB DL.4K.H265.Dolby.Digital.Plus.with.Dolby.Atmos 9.91GB 纪录片 国产电影  第1张

◎译 名 龙虎武师 / KungFu Stuntmen

◎年 代 2020

◎产 地 中国大陆

◎类 别 纪录片

◎语 言 汉语普通话 / 粤语

◎上映日期 2021-08-28(中国大陆) / 2020-10-12(丝绸之路国际电影节)

◎IMDb链接 https://www.imdb.com/title/tt15392272/

◎豆瓣评分 8.3/10 (7916人评价)

◎豆瓣链接 https://movie.douban.com/subject/33410979/

◎片 长 92分钟

◎导 演 魏君子 Junzi Wei (id:1327491)

◎编 剧 魏君子 Junzi Wei (id:1327491)

◎演 员 徐克 Hark Tsui (id:1007152)

袁和平 Woo-ping Yuen (id:1275026)

洪金宝 Sammo Hung Kam-Bo (id:1055887)

成龙 Jackie Chan (id:1054531)

甄子丹 Donnie Yen (id:1025194)

程小东 Siu-Tung Ching (id:1280664)

刘伟强 Andrew Lau (id:1106979)

元华 Wah Yuen (id:1050240)

元秋 Qiu Yuen (id:1304876)

钱小豪 Siu-hou Chin (id:1005415)

钱嘉乐 Kar Lok Chin (id:1025476)

曾志伟 Eric Tsang (id:1002862)

吴思远 See-Yuen Ng (id:1293125)

唐季礼 Stanley Tong (id:1299382)

刘家荣 Chia Yung Liu (id:1290162)

梁小龙 Siu-Lung Leung (id:1274267)

董玮 Wai Tung (id:1299617)

谷轩昭 Huan-Chiu Ku (id:1289063)

元德 Tak Yuen (id:1287153)

林迪安 Dion Lam (id:1289289)

小侯 Hou Hsia (id:1329558)

余袁稳 Yu Yuen Yin (id:1364266)

元武 Wu Yuan (id:1344878)

熊欣欣 Xinxin Xiong (id:1033090)

徐小明 Siu Ming Tsui (id:1299583)

陈会毅 Billy Chan (id:1280414)

李晖 Fai Li (id:1451312)

钟发 Fat Chung (id:1314531)

杨盼盼 Pan Pan Yeung (id:1164633)

刘允 Yue Tau Wan (id:1386905)

徐忠信 Alan Chui Chung San (id:1327646)

黎强权 Benny Lai Keung-Kuen (id:1316555)

徐二牛 Simon Chui Yee-Ang (id:1347648)

火星 Mars (id:1033056)

吴育枢 Jackson Ng Yuk-Sue (id:1361260)

李海生 Hoi Sang Lee (id:1274574)

◎标 签 纪录片 / 中国香港 / 动作 / 龙虎武师 / 袁和平 / 徐克 / 中国大陆 / 甄子丹

◎简 介

影片集结洪金宝、袁和平、程小东、元华、甄子丹、钱嘉乐等华语电影最强“武师阵容”,首次全方位揭秘香港龙虎武师长达六十余年风云变幻,展现中国功夫影人搏命人生路。

  1. ##### MediaInfo ######

  2. General

  3. Unique ID : 234368824560573874619888113139919472944 (0xB051CB319334932554A1823CAB4DC930)

  4. Complete name : KungFu Stuntmen 2021 WEB-DL 4K H265 Dolby Digital Plus with Dolby [email protected]

  5. Format : Matroska

  6. Format version : Version 4

  7. File size : 9.91 GiB

  8. Duration : 1 h 32 min

  9. Overall bit rate : 15.3 Mb/s

  10. Encoded date : UTC 2021-09-11 09:00:19

  11. Writing application : mkvmerge v58.0.0 ('Supper's Ready') 64-bit

  12. Writing library : libebml v1.4.2 + libmatroska v1.6.4


  13. Video

  14. ID : 1

  15. Format : HEVC

  16. Format/Info : High Efficiency Video Coding

  17. Format profile : [email protected]@Main

  18. Codec ID : V_MPEGH/ISO/HEVC

  19. Duration : 1 h 32 min

  20. Bit rate : 14.7 Mb/s

  21. Width : 3 840 pixels

  22. Height : 2 160 pixels

  23. Display aspect ratio : 16:9

  24. Frame rate mode : Constant

  25. Frame rate : 24.000 FPS

  26. Color space : YUV

  27. Chroma subsampling : 4:2:0

  28. Bit depth : 8 bits

  29. Bits/(Pixel*Frame) : 0.074

  30. Stream size : 9.49 GiB (96%)

  31. Default : Yes

  32. Forced : No


  33. Audio #1

  34. ID : 2

  35. Format : E-AC-3 JOC

  36. Format/Info : Enhanced AC-3 with Joint Object Coding

  37. Commercial name : Dolby Digital Plus with Dolby Atmos

  38. Codec ID : A_EAC3

  39. Duration : 1 h 32 min

  40. Bit rate mode : Constant

  41. Bit rate : 448 kb/s

  42. Channel(s) : 6 channels

  43. Channel layout : L R C LFE Ls Rs

  44. Sampling rate : 48.0 kHz

  45. Frame rate : 31.250 FPS (1536 SPF)

  46. Compression mode : Lossy

  47. Stream size : 297 MiB (3%)

  48. Language : Chinese

  49. Service kind : Complete Main

  50. Default : Yes

  51. Forced : No

  52. Complexity index : 16

  53. Number of dynamic objects : 15

  54. Bed channel count : 1 channel

  55. Bed channel configuration : LFE


  56. Audio #2

  57. ID : 3

  58. Format : AAC LC

  59. Format/Info : Advanced Audio Codec Low Complexity

  60. Codec ID : A_AAC-2

  61. Duration : 1 h 32 min

  62. Bit rate : 192 kb/s

  63. Channel(s) : 6 channels

  64. Channel layout : C L R Ls Rs LFE

  65. Sampling rate : 48.0 kHz

  66. Frame rate : 46.875 FPS (1024 SPF)

  67. Compression mode : Lossy

  68. Stream size : 126 MiB (1%)

  69. Language : Chinese

  70. Default : No

  71. Forced : No


文件下载


除非特别注明,本文『龙虎武师[国语配音/中文字幕].KungFu.Stuntmen.2021.WEB-DL.4K.H265.Dolby.Digital.Plus.with.Dolby.Atmos 9.91GB』来源于互联网机器人自动抓取,非本站原创。 浮游电影网不对本文拥有版权,如有侵犯,请联系邮箱:fuyouu#yandex.com[#换成@]投诉。我们会在15个工作日内删除。 但烦请转载时请标明出处:“本文转载于『浮游电影网』,原文地址:https://www.fuyouu.com/14399.html

评论吧骚年!

发表你的见解   

昵称*

E-mail*(建议输入,以便收到博主回复的提示邮件)

验证码*

您可以使用eMule或eMule Mod(Windows)、aMule(Win、Linux、Mac)等软件下载eD2k链接。。
eMule收藏集(.emulecollection)文件是您选中的所有链接的列表文件。eMule可以直接下载它们。
按住SHIFT键选择可以选中多个选择框。
可用文件名和大小选择器来选择文件。
文件名选择器帮您根据文件名称或后缀来选择文件。不分大小写。
符号使用:
和:空格( )、+
不包含:-
或:|
转义:一对英文引号("");
匹配开头:^
匹配结尾:$
例如:
选中所有名称中包含有“eMule”或“0.49c”字眼,但不包含有“exe”字眼的:emule|0.49c -exe
选中所有名称的开头是“eMule”,结尾是“0.49c”的:^emule 0.49c$
选中所有名称中带有“eMule 0.49c”的(必须是“eMule 0.49c”,中间没有别的字符,不能是“eMule fake 0.49c”),需要转义:"emule 0.49c"
大小选择器帮您根据文件大小选择文件。