当前位置: 首页 >> 国产电影 >> 封神·托塔天王[国语配音/中文字幕].The.Legend.of.Deiflcation.2021.4K.WEB-DL.H265.DDP2.0 2.18GB >> 正文

封神·托塔天王[国语配音/中文字幕].The.Legend.of.Deiflcation.2021.4K.WEB-DL.H265.DDP2.0 2.18GB

2021年09月16日 22:21:31     电影发布:来源于网络     电影分类:国产电影     评论(0)    

封神·托塔天王[国语配音/中文字幕].The.Legend.of.Deiflcation.2021.4K.WEB DL.H265.DDP2.0 2.18GB 古装片 奇幻片 动作片 国产电影  第1张

◎译 名 封神·托塔天王 / 新封神之托塔李天王 / 封神托塔天王

◎年 代 2021

◎产 地 中国大陆

◎类 别 动作 / 奇幻 / 古装

◎语 言 汉语普通话

◎上映日期 2021-09-14(中国大陆)

◎IMDb链接 https://www.imdb.com/title//

◎豆瓣链接 https://movie.douban.com/subject/35073512/

◎导 演 周敬峰 Jingfeng Zhou (id:1325191)

◎标 签 待整理

◎简 介

影片讲述天王李靖封神之前斩妖除魔的热血成长史,将观众熟知的封神英雄进行了别出心裁的演绎。影片讲述了大荒城城主张坞为复活三千年前被皇帝打败而封印于东海某处的赤睺,到处蛊惑人心,并指使各种妖怪在人间胡作非为,少年李靖学成下山后见此情景,执心中正义一路斩妖除魔,并与路途中遇到的姜子牙等人结为队友,各显神通,为拯救百姓苍生殊死一战。

  1. ##### MediaInfo ######

  2. General

  3. Unique ID : 184808681037709405305679771313966934345 (0x8B08DB76A861937D34C7449CDFC3E949)

  4. Complete name : 封神·托塔天王[email protected]DQ.COM.mkv

  5. Format : Matroska

  6. Format version : Version 4

  7. File size : 2.18 GiB

  8. Duration : 1 h 20 min

  9. Overall bit rate : 3 906 kb/s

  10. Encoded date : UTC 2021-09-14 11:22:41

  11. Writing application : mkvmerge v61.0.0 ('So') 64-bit

  12. Writing library : libebml v1.4.2 + libmatroska v1.6.4


  13. Video

  14. ID : 1

  15. Format : HEVC

  16. Format/Info : High Efficiency Video Coding

  17. Format profile : [email protected]@Main

  18. Codec ID : V_MPEGH/ISO/HEVC

  19. Duration : 1 h 20 min

  20. Bit rate : 3 808 kb/s

  21. Width : 3 840 pixels

  22. Height : 1 656 pixels

  23. Display aspect ratio : 2.35:1

  24. Frame rate mode : Constant

  25. Frame rate : 25.000 FPS

  26. Color space : YUV

  27. Chroma subsampling : 4:2:0

  28. Bit depth : 8 bits

  29. Bits/(Pixel*Frame) : 0.024

  30. Stream size : 2.13 GiB (97%)

  31. Default : Yes

  32. Forced : No


  33. Audio

  34. ID : 2

  35. Format : E-AC-3

  36. Format/Info : Enhanced AC-3

  37. Commercial name : Dolby Digital Plus

  38. Codec ID : A_EAC3

  39. Duration : 1 h 20 min

  40. Bit rate mode : Constant

  41. Bit rate : 96.0 kb/s

  42. Channel(s) : 2 channels

  43. Channel layout : L R

  44. Sampling rate : 48.0 kHz

  45. Frame rate : 31.250 FPS (1536 SPF)

  46. Compression mode : Lossy

  47. Stream size : 54.9 MiB (2%)

  48. Service kind : Complete Main

  49. Default : Yes

  50. Forced : No


文件下载


除非特别注明,本文『封神·托塔天王[国语配音/中文字幕].The.Legend.of.Deiflcation.2021.4K.WEB-DL.H265.DDP2.0 2.18GB』来源于互联网机器人自动抓取,非本站原创。 浮游电影网不对本文拥有版权,如有侵犯,请联系邮箱:fuyouu#yandex.com[#换成@]投诉。我们会在15个工作日内删除。 但烦请转载时请标明出处:“本文转载于『浮游电影网』,原文地址:https://www.fuyouu.com/14397.html

评论吧骚年!

发表你的见解   

昵称*

E-mail*(建议输入,以便收到博主回复的提示邮件)

验证码*

您可以使用eMule或eMule Mod(Windows)、aMule(Win、Linux、Mac)等软件下载eD2k链接。。
eMule收藏集(.emulecollection)文件是您选中的所有链接的列表文件。eMule可以直接下载它们。
按住SHIFT键选择可以选中多个选择框。
可用文件名和大小选择器来选择文件。
文件名选择器帮您根据文件名称或后缀来选择文件。不分大小写。
符号使用:
和:空格( )、+
不包含:-
或:|
转义:一对英文引号("");
匹配开头:^
匹配结尾:$
例如:
选中所有名称中包含有“eMule”或“0.49c”字眼,但不包含有“exe”字眼的:emule|0.49c -exe
选中所有名称的开头是“eMule”,结尾是“0.49c”的:^emule 0.49c$
选中所有名称中带有“eMule 0.49c”的(必须是“eMule 0.49c”,中间没有别的字符,不能是“eMule fake 0.49c”),需要转义:"emule 0.49c"
大小选择器帮您根据文件大小选择文件。