当前位置: 首页 >> 国产电影 >> 兔子暴力[国语配音/中文字幕].The.Old.Town.Girls.2020.2160p.WEB-DL.H265.DDP5.1 3.19GB >> 正文

兔子暴力[国语配音/中文字幕].The.Old.Town.Girls.2020.2160p.WEB-DL.H265.DDP5.1 3.19GB

2021年09月16日 22:20:18     电影发布:来源于网络     电影分类:国产电影     评论(0)    

兔子暴力[国语配音/中文字幕].The.Old.Town.Girls.2020.2160p.WEB DL.H265.DDP5.1 3.19GB 家庭片 犯罪片 剧情片 国产电影  第1张

◎译 名 兔子暴力 / The Old Town Girls / 兎たちの暴走

◎年 代 2020

◎产 地 中国大陆

◎类 别 剧情 / 家庭 / 犯罪

◎语 言 汉语普通话

◎上映日期 2021-08-14(中国大陆) / 2020-11-01(东京电影节)

◎IMDb链接 https://www.imdb.com/title/tt10393440/

◎豆瓣评分 6.2/10 (25650人评价)

◎豆瓣链接 https://movie.douban.com/subject/30289828/

◎片 长 104分钟(东京电影节)

◎导 演 申瑜 Yu Shen (id:1402414)

◎编 剧 申瑜 Yu Shen (id:1402414)

邱玉洁 Yujie Qiu (id:1402410)

方励 Li Fang (id:1275873)

◎演 员 万茜 Qian Wan (id:1315477)

李庚希 Gengxi Li (id:1376310)

黄觉 Jue Huang (id:1275273)

潘斌龙 Binlong Pan (id:1316365)

是安 An Shi (id:1319541)

柴烨 Ye Chai (id:1418299)

周子越 Ziyue Zhou (id:1418300)

俞更寅 Gengyin Yu (id:1418298)

方励 Li Fang (id:1275873)

耐安 An Nai (id:1319560)

李玉 Yu Li (id:1217944)

方励 Li Fang (id:1275873)

杨菲菲 Feifei Yang (id:1418594)

栗颜 Yan Li (id:1456796)

赵伟 Wei Zhao (id:1456795)

张晗 Han Zhang (id:1442702)

顾思斌 Sibin Gu (id:1434936)

白行朗 Xinglang Bai (id:1460479)

◎标 签 女性 / 犯罪 / 文艺 / 剧情 / 成长 / 悬疑 / 中国大陆 / 家庭

◎简 介

在一座即将废弃的南方重工业小城里,委身于继母阴影下长大的少女水青(李庚希 饰),渴望见到素未谋面的亲生母亲曲婷(万茜 饰)。十七年后,曲婷的突然归来给水青缺爱的青春带来了温暖与快乐,她很快就融入了水青的生活,与水青及其闺蜜们组成了“青春兔子帮”,四个姑娘一起度过了一段自由奔放的时光。然而一个神秘男人老杜(黄觉 饰)的到来打碎了这来之不易的幸福,也揭开了曲婷不为人知的另一面。为了捍卫失而复得的母爱,水青决定放手一搏,哪知冲动的行为却闯下大祸,事情逐渐变得不可控制……

◎获奖情况 (共1项)

第33届东京国际电影节 (2020)

东京首映2020(提名)

└──申瑜 (id:1402414)

  1. ##### MediaInfo ######

  2. General

  3. Unique ID : 136467268180586264736449859160111060186 (0x66AAA3CB5C0FA624F59098D34BE014DA)

  4. Complete name : 兔子暴力[email protected]OM.mkv

  5. Format : Matroska

  6. Format version : Version 4

  7. File size : 3.19 GiB

  8. Duration : 1 h 45 min

  9. Overall bit rate : 4 331 kb/s

  10. Encoded date : UTC 2021-09-14 11:59:44

  11. Writing application : mkvmerge v51.0.0 ('I Wish') 64-bit

  12. Writing library : libebml v1.4.0 + libmatroska v1.6.2


  13. Video

  14. ID : 1

  15. Format : HEVC

  16. Format/Info : High Efficiency Video Coding

  17. Format profile : [email protected]@Main

  18. Codec ID : V_MPEGH/ISO/HEVC

  19. Duration : 1 h 45 min

  20. Bit rate : 3 883 kb/s

  21. Width : 3 840 pixels

  22. Height : 2 072 pixels

  23. Display aspect ratio : 1.85:1

  24. Frame rate mode : Constant

  25. Frame rate : 25.000 FPS

  26. Color space : YUV

  27. Chroma subsampling : 4:2:0

  28. Bit depth : 8 bits

  29. Bits/(Pixel*Frame) : 0.020

  30. Stream size : 2.86 GiB (90%)

  31. Default : Yes

  32. Forced : No


  33. Audio #1

  34. ID : 2

  35. Format : E-AC-3

  36. Format/Info : Enhanced AC-3

  37. Commercial name : Dolby Digital Plus

  38. Codec ID : A_EAC3

  39. Duration : 1 h 45 min

  40. Bit rate mode : Constant

  41. Bit rate : 256 kb/s

  42. Channel(s) : 6 channels

  43. Channel layout : L R C LFE Ls Rs

  44. Sampling rate : 48.0 kHz

  45. Frame rate : 31.250 FPS (1536 SPF)

  46. Compression mode : Lossy

  47. Stream size : 193 MiB (6%)

  48. Language : Chinese

  49. Service kind : Complete Main

  50. Default : Yes

  51. Forced : No


  52. Audio #2

  53. ID : 3

  54. Format : AAC LC

  55. Format/Info : Advanced Audio Codec Low Complexity

  56. Codec ID : A_AAC-2

  57. Duration : 1 h 45 min

  58. Bit rate : 192 kb/s

  59. Channel(s) : 2 channels

  60. Channel layout : L R

  61. Sampling rate : 44.1 kHz

  62. Frame rate : 43.066 FPS (1024 SPF)

  63. Compression mode : Lossy

  64. Stream size : 143 MiB (4%)

  65. Language : Chinese

  66. Default : No

  67. Forced : No


文件下载


除非特别注明,本文『兔子暴力[国语配音/中文字幕].The.Old.Town.Girls.2020.2160p.WEB-DL.H265.DDP5.1 3.19GB』来源于互联网机器人自动抓取,非本站原创。 浮游电影网不对本文拥有版权,如有侵犯,请联系邮箱:fuyouu#yandex.com[#换成@]投诉。我们会在15个工作日内删除。 但烦请转载时请标明出处:“本文转载于『浮游电影网』,原文地址:https://www.fuyouu.com/14396.html

评论吧骚年!

发表你的见解   

昵称*

E-mail*(建议输入,以便收到博主回复的提示邮件)

验证码*

您可以使用eMule或eMule Mod(Windows)、aMule(Win、Linux、Mac)等软件下载eD2k链接。。
eMule收藏集(.emulecollection)文件是您选中的所有链接的列表文件。eMule可以直接下载它们。
按住SHIFT键选择可以选中多个选择框。
可用文件名和大小选择器来选择文件。
文件名选择器帮您根据文件名称或后缀来选择文件。不分大小写。
符号使用:
和:空格( )、+
不包含:-
或:|
转义:一对英文引号("");
匹配开头:^
匹配结尾:$
例如:
选中所有名称中包含有“eMule”或“0.49c”字眼,但不包含有“exe”字眼的:emule|0.49c -exe
选中所有名称的开头是“eMule”,结尾是“0.49c”的:^emule 0.49c$
选中所有名称中带有“eMule 0.49c”的(必须是“eMule 0.49c”,中间没有别的字符,不能是“eMule fake 0.49c”),需要转义:"emule 0.49c"
大小选择器帮您根据文件大小选择文件。