当前位置: 首页 >> 国产电影 >> 再见,在也不见[国语配音/中文字幕].Distance.2016.1080p.BluRay.x265.10bit.DTS 7.10GB >> 正文

再见,在也不见[国语配音/中文字幕].Distance.2016.1080p.BluRay.x265.10bit.DTS 7.10GB

2021年09月16日 22:18:13     电影发布:来源于网络     电影分类:国产电影     评论(0)    

再见,在也不见[国语配音/中文字幕].Distance.2016.1080p.BluRay.x265.10bit.DTS 7.10GB 同性 家庭片 爱情片 剧情片 国产电影  第1张

◎译 名 再见,在也不见 / 距离 / Distance

◎片 名 再見,在也不見

◎年 代 2015

◎产 地 中国大陆 / 新加坡 / 泰国 / 中国台湾

◎类 别 剧情 / 爱情 / 同性 / 家庭

◎语 言 汉语普通话 / 英语 / 泰语 / 粤语 / 闽南话

◎上映日期 2016-05-13(中国大陆) / 2015-11-05(中国台湾金马影展) / 2016-05-20(中国台湾)

◎IMDb链接 https://www.imdb.com/title/tt4907174/

◎豆瓣评分 5.9/10 (19545人评价)

◎豆瓣链接 https://movie.douban.com/subject/26282530/

◎片 长 108分钟

◎导 演 忻钰坤 Yukun Xin (id:1341214)

陈世杰 Shijie Tan (id:1332552)

西瓦罗·孔萨库 Sivaroj Kongsakul (id:1314350)

◎编 剧 忻钰坤 Yukun Xin (id:1341214)

陈世杰 Shijie Tan (id:1332552)

西瓦罗·孔萨库 Sivaroj Kongsakul (id:1314350)

陈哲艺 Anthony Chen (id:1001669)

◎演 员 陈柏霖 Bo-lin Chen (id:1211987)

蒋雯丽 Wenli Jiang (id:1020487)

杨祐宁 Yo Yang (id:1051157)

秦沛 Paul Chun (id:1048476)

小茶 PAT (id:1348755)

冯瓅 Li Feng (id:1319504)

杨雁雁 Yann Yann Yeo (id:1315164)

魏汉鼎 Matthew Han-Ting Wei (id:1343498)

平坦 Ping Tan (id:1364919)

查雅妮·臣姗卡维 Chayanit Chansangavej (id:1422568)

陈哲艺 Anthony Chen (id:1001669)

◎标 签 文艺 / 台湾 / 剧情 / 中国 / 同性 / 爱情 / 2015 / 忻钰坤

◎简 介

电影分为三个发生在不同时期、地点但是相互有着关联的故事。

《背影》:陈经理(陈柏霖 饰)受公司所托前往广西进行业务考察,在工厂里,他意外的遇见了和自己失散多年的父亲。如今的父亲已然垂垂老矣,他早已经认不出儿子的面庞了,而陈经理也似乎并没有和父亲相认的打算。

《湖畔》:陈德明(陈柏霖 饰)刚刚喜为人父,一封来自监狱的信便冲淡了这份喜悦。原来,他曾经的挚友(杨佑宁 饰)即将面临死刑的制裁,他要去新加坡送他最后一程。

《再见》:大学教授陈志彬(陈柏霖 饰)前往泰国讲学,在那里邂逅了曾经的大学老师(蒋雯丽 饰),两人重续了一段师生恋。

  1. ##### MediaInfo ######

  2. General

  3. Unique ID : 29779051125975683985197840517356848901 (0x16673C93A5507EA9E81A03BD3AE00705)

  4. Complete name : [email protected]

  5. Format : Matroska

  6. Format version : Version 4

  7. File size : 7.10 GiB

  8. Duration : 1 h 48 min

  9. Overall bit rate : 9 391 kb/s

  10. Encoded date : UTC 2021-09-13 10:31:04

  11. Writing application : mkvmerge v61.0.0 ('So') 64-bit

  12. Writing library : libebml v1.4.2 + libmatroska v1.6.4

  13. Attachments : WenQuanWeiMiHei-1.ttf


  14. Video

  15. ID : 1

  16. Format : HEVC

  17. Format/Info : High Efficiency Video Coding

  18. Format profile : Main [email protected]@Main

  19. Codec ID : V_MPEGH/ISO/HEVC

  20. Duration : 1 h 48 min

  21. Bit rate : 7 867 kb/s

  22. Width : 1 920 pixels

  23. Height : 1 036 pixels

  24. Display aspect ratio : 1.85:1

  25. Frame rate mode : Constant

  26. Frame rate : 24.000 FPS

  27. Color space : YUV

  28. Chroma subsampling : 4:2:0

  29. Bit depth : 10 bits

  30. Bits/(Pixel*Frame) : 0.165

  31. Stream size : 5.95 GiB (84%)

  32. Writing library : x265 3.5+2-g2b25c9ba0+45:[Windows][GCC 10.2.0][64 bit] Yuuki 10bit+8bit+12bit

  33. Encoding settings : rc=crf / crf=19.0000 / qcomp=0.65 / qpstep=4 / stats-write=0 / stats-read=0 / no-lossless / no-cu-lossless / aq-mode=3 / aq-strength=0.70 / cbqpoffs=0 / crqpoffs=0 / ipratio=1.40 / pbratio=1.30 / psy-rd=2.00 / psy-rdoq=0.00 / deblock=0:0 / ref=6 / limit-refs=1 / no-limit-modes / bframes=8 / b-adapt=2 / bframe-bias=0 / b-pyramid / b-intra / weightp / weightb / min-keyint=24 / max-keyint=240 / rc-lookahead=24 / gop-lookahead=0 / NTMzNTQ=uuDQuD2mJt9fsCf / scenecut=40 / hist-scenecut=0 / radl=0 / max-cu-size=64 / min-cu-size=8 / me=3 / subme=7 / merange=48 / rdoq-level=0 / rd=4 / rdpenalty=0 / dynamic-rd=0.00 / no-rd-refine / ----- / cutree / sao / no-rect / no-amp / no-open-gop / wpp / no-pmode / pme / no-psnr / no-ssim / nr-intra=0 / nr-inter=0 / no-constrained-intra / no-strong-intra-smoothing / max-tu-size=32 / tu-inter-depth=1 / tu-intra-depth=1 / limit-tu=0 / qg-size=32 / qpmax=69 / qpmin=0 / ----- / cpuid=533541111039 / frame-threads=4 / numa-pools=+ / log-level=2 / input-csp=1 / input-res=1920x1036 / interlace=0 / level-idc=0 / high-tier=1 / uhd-bd=0 / no-allow-non-conformance / no-repeat-headers / aud / no-hrd / info / hash=0 / no-temporal-layers / lookahead-slices=0 / no-splice / no-intra-refresh / no-ssim-rd / signhide / no-tskip / max-merge=3 / temporal-mvp / no-frame-dup / no-hme / no-analyze-src-pics / no-sao-non-deblock / selective-sao=4 / early-skip / rskip / no-fast-intra / no-tskip-fast / no-splitrd-skip / zone-count=0 / no-strict-cbr / no-rc-grain / no-const-vbv / sar=0 / overscan=0 / videoformat=5 / range=0 / colorprim=2 / transfer=2 / colormatrix=2 / chromaloc=0 / display-window=0 / cll=0,0 / min-luma=0 / max-luma=1023 / log2-max-poc-lsb=8 / vui-timing-info / vui-hrd-info / slices=1 / no-opt-qp-pps / no-opt-ref-list-length-pps / no-multi-pass-opt-rps / scenecut-bias=0.05 / hist-threshold=0.03 / no-opt-cu-delta-qp / no-aq-motion / no-hdr10 / no-hdr10-opt / no-dhdr10-opt / no-idr-recovery-sei / analysis-reuse-level=0 / analysis-save-reuse-level=0 / analysis-load-reuse-level=0 / scale-factor=0 / refine-intra=0 / refine-inter=0 / refine-mv=1 / refine-ctu-distortion=0 / no-limit-sao / ctu-info=0 / no-lowpass-dct / refine-analysis-type=0 / copy-pic=1 / max-ausize-factor=1.0 / no-dynamic-refine / no-single-sei / no-hevc-aq / no-svt / no-field / qp-adaptation-range=1.00 / scenecut-aware-qp=0conformance-window-offsets / right=0 / bottom=0 / NTMzNTQ= / decoder-max-rate=0 / no-vbv-live-multi-pass

  34. Default : Yes

  35. Forced : No


  36. Audio

  37. ID : 2

  38. Format : DTS

  39. Format/Info : Digital Theater Systems

  40. Codec ID : A_DTS

  41. Duration : 1 h 48 min

  42. Bit rate mode : Constant

  43. Bit rate : 1 510 kb/s

  44. Channel(s) : 6 channels

  45. Channel layout : C L R Ls Rs LFE

  46. Sampling rate : 48.0 kHz

  47. Frame rate : 93.750 FPS (512 SPF)

  48. Bit depth : 24 bits

  49. Compression mode : Lossy

  50. Stream size : 1.14 GiB (16%)

  51. Title : Mandarin

  52. Language : Chinese

  53. Default : Yes

  54. Forced : No


  55. Text #1

  56. ID : 3

  57. Format : ASS

  58. Codec ID : S_TEXT/ASS

  59. Codec ID/Info : Advanced Sub Station Alpha

  60. Duration : 1 h 38 min

  61. Bit rate : 39 b/s

  62. Count of elements : 661

  63. Compression mode : Lossless

  64. Stream size : 28.9 KiB (0%)

  65. Title : chs

  66. Language : Chinese

  67. Default : Yes

  68. Forced : No


  69. Text #2

  70. ID : 4

  71. Format : ASS

  72. Codec ID : S_TEXT/ASS

  73. Codec ID/Info : Advanced Sub Station Alpha

  74. Duration : 1 h 38 min

  75. Bit rate : 39 b/s

  76. Count of elements : 661

  77. Compression mode : Lossless

  78. Stream size : 28.9 KiB (0%)

  79. Title : cht

  80. Language : Chinese

  81. Default : No

  82. Forced : No


  83. Text #3

  84. ID : 5

  85. Format : PGS

  86. Muxing mode : zlib

  87. Codec ID : S_HDMV/PGS

  88. Codec ID/Info : Picture based subtitle format used on BDs/HD-DVDs

  89. Duration : 1 h 38 min

  90. Bit rate : 13.0 kb/s

  91. Count of elements : 1289

  92. Stream size : 9.20 MiB (0%)

  93. Title : eng

  94. Language : English

  95. Default : No

  96. Forced : No


  97. Menu

  98. 00:00:00.000 : 00:00:00.000

  99. 00:09:56.042 : 00:09:56.042

  100. 00:18:44.542 : 00:18:44.542

  101. 00:28:38.292 : 00:28:38.292

  102. 00:36:19.750 : 00:36:19.750

  103. 00:46:17.458 : 00:46:17.458

  104. 00:54:32.250 : 00:54:32.250

  105. 01:02:32.792 : 01:02:32.792

  106. 01:12:49.917 : 01:12:49.917

  107. 01:20:45.833 : 01:20:45.833

  108. 01:29:32.333 : 01:29:32.333

  109. 01:38:00.583 : 01:38:00.583


文件下载


除非特别注明,本文『再见,在也不见[国语配音/中文字幕].Distance.2016.1080p.BluRay.x265.10bit.DTS 7.10GB』来源于互联网机器人自动抓取,非本站原创。 浮游电影网不对本文拥有版权,如有侵犯,请联系邮箱:fuyouu#yandex.com[#换成@]投诉。我们会在15个工作日内删除。 但烦请转载时请标明出处:“本文转载于『浮游电影网』,原文地址:https://www.fuyouu.com/14395.html

评论吧骚年!

发表你的见解   

昵称*

E-mail*(建议输入,以便收到博主回复的提示邮件)

验证码*

您可以使用eMule或eMule Mod(Windows)、aMule(Win、Linux、Mac)等软件下载eD2k链接。。
eMule收藏集(.emulecollection)文件是您选中的所有链接的列表文件。eMule可以直接下载它们。
按住SHIFT键选择可以选中多个选择框。
可用文件名和大小选择器来选择文件。
文件名选择器帮您根据文件名称或后缀来选择文件。不分大小写。
符号使用:
和:空格( )、+
不包含:-
或:|
转义:一对英文引号("");
匹配开头:^
匹配结尾:$
例如:
选中所有名称中包含有“eMule”或“0.49c”字眼,但不包含有“exe”字眼的:emule|0.49c -exe
选中所有名称的开头是“eMule”,结尾是“0.49c”的:^emule 0.49c$
选中所有名称中带有“eMule 0.49c”的(必须是“eMule 0.49c”,中间没有别的字符,不能是“eMule fake 0.49c”),需要转义:"emule 0.49c"
大小选择器帮您根据文件大小选择文件。