当前位置: 首页 >> 港台电影 >> 逆向诱拐[粤语配音/中文字幕].Napping.Kid.2018.1080p.BluRay.x265.10bit.DTS 5.66GB >> 正文

逆向诱拐[粤语配音/中文字幕].Napping.Kid.2018.1080p.BluRay.x265.10bit.DTS 5.66GB

2021年09月16日 22:17:01     电影发布:来源于网络     电影分类:港台电影     评论(0)    

逆向诱拐[粤语配音/中文字幕].Napping.Kid.2018.1080p.BluRay.x265.10bit.DTS 5.66GB 悬疑片 剧情片 港台电影  第1张

◎译 名 逆向诱拐 / Napping Kid

◎片 名 逆向誘拐

◎年 代 2018

◎产 地 中国香港

◎类 别 剧情 / 悬疑

◎语 言 粤语

◎上映日期 2018-11-08(中国香港)

◎IMDb链接 https://www.imdb.com/title/tt9279172/

◎豆瓣评分 4.7/10 (709人评价)

◎豆瓣链接 https://movie.douban.com/subject/26752542/

◎片 长 98分钟

◎导 演 黄浩然 Amos Why (id:1345116)

◎编 剧 陈咏燊 Sunny Chan (id:1375202)

◎演 员 苏丽珊 Cecilia So (id:1352154)

吴肇轩 Kenneth Woo (id:1353200)

邵仲衡 David Siu (id:1313804)

朱鉴然 kevin Chu (id:1375415)

梁晓丰 Anjo Leung (id:1317340)

陈曾宁 Ning Chan (id:1376024)

泰臣 Tyson Chak (id:1348472)

蒋祖曼 Joman Chiang (id:1021150)

岑珈其 Kaki Sham (id:1319715)

黄修平 Adam Wong Sau Ping (id:1309385)

王敏德 Michael Wong (id:1162139)

葛民辉 Eric Kot (id:1017040)

曾翠珊 Jessey Tsang Tsui-Shan (id:1319121)

赖恩慈 Lai Yan Chi (id:1375388)

张雪芹 Candy Cheung (id:1348494)

曾江 Kenneth Tsang (id:1275451)

陈豪 Moses Chan (id:1003593)

邵音音 Yin-Yin Shaw (id:1297367)

何故 Keith Ho (id:1355515)

黄竣锋 Jason Wong (id:1382111)

梁雍婷 Rachel Leung (id:1371987)

吴良荣 Tommy Ng (id:1378872)

袁文杰 Andrew Yuen (id:1320199)

周群达 Duncan Lai (id:1051089)

覃恩美 Amy Chum (id:1319488)

古天祥 Carlos Koo (id:1349800)

许博文 Johnny Hui (id:1385901)

邝珮诗 Teresa Kwong (id:1422903)

李端娴 Veronica Lee (id:1328029)

李瑞娴 Veronica Lee (id:1446719)

雪美莲 Mary Stephen (id:1328982)

◎标 签 香港 / 悬疑 / 香港电影 / 2018 / 剧情 / 蘇麗珊 / 邵仲衡 / 吳肇軒

◎简 介

跨国投资银行香港高层约翰收到勒索电邮,如不按指示三日内交出约十九万港币,有关台湾科网龙头公司之机密融资分析就会被公开。为了公司声誉,也为免客户股价大幅波动,约翰暗中找来昔日大学舍堂堂友兼刑警唐辅协助调查。

机密融资分析由约翰四位下属负责,其中牧野一度失踪,嫌疑极大。发现档案在内联网被偷之小儒,因曾向电脑部职员阿植求救,结果整个团队连阿植六人,都被约翰安排到附近一间贵宾公寓套房,接受唐辅以至其手下全天候监视,直至完成赎金交易。

由于赎金奇少,绑匪显然志不在钱,其多个古怪指示更令人困惑。当阿植协助追踪绑匪电邮源头时,竟发现电邮是由公司伺服器发出,换言之绑匪必有内应。其后电邮证实来自阿植手机,纵然他在早上已遗失手机,而最后是小儒接触他手机,阿植依然百词莫辨。

唐辅发现阿植家庭背景殊不简单,疑似内应之神秘人又频频现身,加上科网公司原来曾有高层因新一代网上平台...

◎获奖情况 (共1项)

第38届香港电影金像奖 (2019)

最佳剪接(提名)

  1. ##### MediaInfo ######

  2. General

  3. Unique ID : 330950284781868396718098534599760491130 (0xF8FAB4D3C760DA77E0982BC6CEC7327A)

  4. Complete name : [email protected]v

  5. Format : Matroska

  6. Format version : Version 4

  7. File size : 5.65 GiB

  8. Duration : 1 h 38 min

  9. Overall bit rate : 8 208 kb/s

  10. Movie name : Napping Kid

  11. Encoded date : UTC 2021-09-14 04:54:11

  12. Writing application : mkvmerge v61.0.0 ('So') 64-bit

  13. Writing library : libebml v1.4.2 + libmatroska v1.6.4

  14. Cover : Yes

  15. Attachments : cover.jpg / WenQuanWeiMiHei-1.ttf


  16. Video

  17. ID : 1

  18. Format : HEVC

  19. Format/Info : High Efficiency Video Coding

  20. Format profile : Main [email protected]@Main

  21. Codec ID : V_MPEGH/ISO/HEVC

  22. Duration : 1 h 38 min

  23. Bit rate : 6 674 kb/s

  24. Width : 1 920 pixels

  25. Height : 804 pixels

  26. Display aspect ratio : 2.40:1

  27. Frame rate mode : Constant

  28. Frame rate : 24.000 FPS

  29. Color space : YUV

  30. Chroma subsampling : 4:2:0

  31. Bit depth : 10 bits

  32. Bits/(Pixel*Frame) : 0.180

  33. Stream size : 4.60 GiB (81%)

  34. Writing library : x265 3.5+2-g2b25c9ba0+45:[Windows][GCC 10.2.0][64 bit] Yuuki 10bit+8bit+12bit

  35. Encoding settings : rc=crf / crf=17.5000 / qcomp=0.65 / qpstep=4 / stats-write=0 / stats-read=0 / no-lossless / no-cu-lossless / aq-mode=3 / aq-strength=0.80 / cbqpoffs=0 / crqpoffs=0 / ipratio=1.40 / pbratio=1.30 / psy-rd=2.00 / psy-rdoq=0.00 / deblock=0:0 / ref=6 / limit-refs=1 / no-limit-modes / bframes=8 / b-adapt=2 / bframe-bias=0 / b-pyramid / b-intra / weightp / weightb / min-keyint=24 / max-keyint=240 / rc-lookahead=24 / gop-lookahead=0 / NTMzNTQ=uuDQuD2mJt9fsCf / scenecut=40 / hist-scenecut=0 / radl=0 / max-cu-size=64 / min-cu-size=8 / me=3 / subme=7 / merange=48 / rdoq-level=0 / rd=4 / rdpenalty=0 / dynamic-rd=0.00 / no-rd-refine / ----- / cutree / sao / no-rect / no-amp / no-open-gop / wpp / no-pmode / pme / no-psnr / no-ssim / nr-intra=0 / nr-inter=0 / no-constrained-intra / no-strong-intra-smoothing / max-tu-size=32 / tu-inter-depth=1 / tu-intra-depth=1 / limit-tu=0 / qg-size=32 / qpmax=69 / qpmin=0 / ----- / cpuid=533541111039 / frame-threads=4 / numa-pools=+ / log-level=2 / input-csp=1 / input-res=1920x804 / interlace=0 / level-idc=0 / high-tier=1 / uhd-bd=0 / no-allow-non-conformance / no-repeat-headers / aud / no-hrd / info / hash=0 / no-temporal-layers / lookahead-slices=0 / no-splice / no-intra-refresh / no-ssim-rd / signhide / no-tskip / max-merge=3 / temporal-mvp / no-frame-dup / no-hme / no-analyze-src-pics / no-sao-non-deblock / selective-sao=4 / early-skip / rskip / no-fast-intra / no-tskip-fast / no-splitrd-skip / zone-count=0 / no-strict-cbr / no-rc-grain / no-const-vbv / sar=0 / overscan=0 / videoformat=5 / range=0 / colorprim=2 / transfer=2 / colormatrix=2 / chromaloc=0 / display-window=0 / cll=0,0 / min-luma=0 / max-luma=1023 / log2-max-poc-lsb=8 / vui-timing-info / vui-hrd-info / slices=1 / no-opt-qp-pps / no-opt-ref-list-length-pps / no-multi-pass-opt-rps / scenecut-bias=0.05 / hist-threshold=0.03 / no-opt-cu-delta-qp / no-aq-motion / no-hdr10 / no-hdr10-opt / no-dhdr10-opt / no-idr-recovery-sei / analysis-reuse-level=0 / analysis-save-reuse-level=0 / analysis-load-reuse-level=0 / scale-factor=0 / refine-intra=0 / refine-inter=0 / refine-mv=1 / refine-ctu-distortion=0 / no-limit-sao / ctu-info=0 / no-lowpass-dct / refine-analysis-type=0 / copy-pic=1 / max-ausize-factor=1.0 / no-dynamic-refine / no-single-sei / no-hevc-aq / no-svt / no-field / qp-adaptation-range=1.00 / scenecut-aware-qp=0conformance-window-offsets / right=0 / bottom=0 / NTMzNTQ= / decoder-max-rate=0 / no-vbv-live-multi-pass

  36. Default : Yes

  37. Forced : No


  38. Audio

  39. ID : 2

  40. Format : DTS

  41. Format/Info : Digital Theater Systems

  42. Codec ID : A_DTS

  43. Duration : 1 h 38 min

  44. Bit rate mode : Constant

  45. Bit rate : 1 510 kb/s

  46. Channel(s) : 6 channels

  47. Channel layout : C L R Ls Rs LFE

  48. Sampling rate : 48.0 kHz

  49. Frame rate : 93.750 FPS (512 SPF)

  50. Bit depth : 24 bits

  51. Compression mode : Lossy

  52. Stream size : 1.04 GiB (18%)

  53. Title : Cantonese

  54. Language : Chinese

  55. Default : Yes

  56. Forced : No


  57. Text #1

  58. ID : 3

  59. Format : ASS

  60. Codec ID : S_TEXT/ASS

  61. Codec ID/Info : Advanced Sub Station Alpha

  62. Duration : 1 h 37 min

  63. Bit rate : 109 b/s

  64. Count of elements : 1816

  65. Compression mode : Lossless

  66. Stream size : 78.1 KiB (0%)

  67. Title : chs

  68. Language : Chinese

  69. Default : Yes

  70. Forced : No


  71. Text #2

  72. ID : 4

  73. Format : ASS

  74. Codec ID : S_TEXT/ASS

  75. Codec ID/Info : Advanced Sub Station Alpha

  76. Duration : 1 h 37 min

  77. Bit rate : 109 b/s

  78. Count of elements : 1816

  79. Compression mode : Lossless

  80. Stream size : 78.1 KiB (0%)

  81. Title : cht

  82. Language : Chinese

  83. Default : No

  84. Forced : No


  85. Text #3

  86. ID : 5

  87. ID in the original source medium : 4609 (0x1201)

  88. Format : PGS

  89. Muxing mode : zlib

  90. Codec ID : S_HDMV/PGS

  91. Codec ID/Info : Picture based subtitle format used on BDs/HD-DVDs

  92. Duration : 1 h 37 min

  93. Bit rate : 54.7 kb/s

  94. Count of elements : 2894

  95. Stream size : 37.9 MiB (1%)

  96. Title : eng

  97. Language : English

  98. Default : No

  99. Forced : No

  100. Original source medium : Blu-ray


  101. Menu

  102. 00:00:00.000 : Chapter 01

  103. 00:05:25.000 : Chapter 02

  104. 00:14:12.250 : Chapter 03

  105. 00:23:07.416 : Chapter 04

  106. 00:33:18.583 : Chapter 05

  107. 00:41:09.208 : Chapter 06

  108. 00:50:00.500 : Chapter 07

  109. 00:56:27.958 : Chapter 08

  110. 01:05:12.750 : Chapter 09

  111. 01:11:45.458 : Chapter 10

  112. 01:19:11.083 : Chapter 11

  113. 01:30:12.583 : Chapter 12


文件下载


除非特别注明,本文『逆向诱拐[粤语配音/中文字幕].Napping.Kid.2018.1080p.BluRay.x265.10bit.DTS 5.66GB』来源于互联网机器人自动抓取,非本站原创。 浮游电影网不对本文拥有版权,如有侵犯,请联系邮箱:fuyouu#yandex.com[#换成@]投诉。我们会在15个工作日内删除。 但烦请转载时请标明出处:“本文转载于『浮游电影网』,原文地址:https://www.fuyouu.com/14394.html

评论吧骚年!

发表你的见解   

昵称*

E-mail*(建议输入,以便收到博主回复的提示邮件)

验证码*

您可以使用eMule或eMule Mod(Windows)、aMule(Win、Linux、Mac)等软件下载eD2k链接。。
eMule收藏集(.emulecollection)文件是您选中的所有链接的列表文件。eMule可以直接下载它们。
按住SHIFT键选择可以选中多个选择框。
可用文件名和大小选择器来选择文件。
文件名选择器帮您根据文件名称或后缀来选择文件。不分大小写。
符号使用:
和:空格( )、+
不包含:-
或:|
转义:一对英文引号("");
匹配开头:^
匹配结尾:$
例如:
选中所有名称中包含有“eMule”或“0.49c”字眼,但不包含有“exe”字眼的:emule|0.49c -exe
选中所有名称的开头是“eMule”,结尾是“0.49c”的:^emule 0.49c$
选中所有名称中带有“eMule 0.49c”的(必须是“eMule 0.49c”,中间没有别的字符,不能是“eMule fake 0.49c”),需要转义:"emule 0.49c"
大小选择器帮您根据文件大小选择文件。