当前位置: 首页 >> 欧美电影 >> 性、谎言和录像带[中文字幕].Sex.Lies.and.Videotape.1989.1080p 6.87GB >> 正文

性、谎言和录像带[中文字幕].Sex.Lies.and.Videotape.1989.1080p 6.87GB

2021年09月16日 22:13:00     电影发布:来源于网络     电影分类:欧美电影     评论(0)    

性、谎言和录像带[中文字幕].Sex.Lies.and.Videotape.1989.1080p 6.87GB 情色 剧情片 欧美电影  第1张

◎译 名 性、谎言和录像带 / 性,谎言,录影带 / 性,谎言,录像带 / 性感的谎言

◎片 名 Sex, Lies, and Videotape

◎年 代 1989

◎产 地 美国

◎类 别 剧情 / 情色

◎语 言 英语

◎上映日期 1989-08-18(美国)

◎IMDb链接 https://www.imdb.com/title/tt0098724/

◎豆瓣评分 7.7/10 (35836人评价)

◎豆瓣链接 https://movie.douban.com/subject/1292341/

◎片 长 100分钟

◎导 演 史蒂文·索德伯格 Steven Soderbergh (id:1054400)

◎编 剧 史蒂文·索德伯格 Steven Soderbergh (id:1054400)

◎演 员 安迪·麦克道威尔 Andie MacDowell (id:1048128)

詹姆斯·斯派德 James Spader (id:1006968)

彼得·盖勒 Peter Gallagher (id:1022650)

劳拉·圣吉亚科莫 Laura San Giacomo (id:1040546)

史蒂文·布里尔 Steven Brill (id:1072924)

John Hardy John Hardy (id:1286031)

尼克·维克斯勒 Nick Wechsler (id:1300582)

Nancy Tenenbaum Nancy Tenenbaum (id:1299049)

克里夫·马丁内斯 Cliff Martinez (id:1005381)

Walt Lloyd Walt Lloyd (id:1290201)

史蒂文·索德伯格 Steven Soderbergh (id:1054400)

德博拉·阿奎拉 Deborah Aquila (id:1277347)

◎标 签 美国 / 情色 / 美国电影 / 剧情 / 性 / 爱情 / StevenSoderbergh / Steven_Soderbergh

◎简 介

格雷厄姆(詹姆斯?斯派德 James Spader 饰)有一个特殊的癖好,就是为各种各样的女人录影,这些女人在他的摄像机面前都毫不遮掩地谈论自己的性经验和其中细节。当格雷厄姆回到阔别多年的家乡时,他除了一辆汽车和这些录像带,一无所有。所以他只能暂时借住在同学约翰家。

约翰(彼得?盖勒 Peter Gallagher 饰)是一名成功人士,他和妻子安(安迪?麦克道威尔 Andie MacDowell 饰)的妹妹辛西娅一直都在偷情,对妻子总是爱理不理。安陪着格雷厄姆去找租住的房子时,两人在餐厅进行了一次关于性的长谈,安坦言自己并不怎么重视性生活,而格雷厄姆则道出了自己的秘密:他性无能。

安偶然发现了格雷厄姆为各色女人拍的录影带,因丈夫冷淡而内心苦闷的她决定也来录影。

◎获奖情况 (共4项)

第62届奥斯卡金像奖 (1990)

最佳原创剧本(提名)

└──史蒂文·索德伯格 (id:1054400)

第42届戛纳电影节 (1989)

主竞赛单元 金棕榈奖

└──史蒂文·索德伯格 (id:1054400)

主竞赛单元 最佳男演员

└──詹姆斯·斯派德 (id:1006968)

费比西奖

└──史蒂文·索德伯格 (id:1054400)

  1. ##### MediaInfo ######

  2. General

  3. Unique ID : 187340431249607930963778349900473168759 (0x8CF07462E1870E62FED119C5E615F377)

  4. Complete name : [email protected]QDDQ.COM.mkv

  5. Format : Matroska

  6. Format version : Version 4

  7. File size : 6.87 GiB

  8. Duration : 1 h 40 min

  9. Overall bit rate : 9 818 kb/s

  10. Movie name : Sex Lies and Videotape 1989 1080p BluRay DTS [email protected]

  11. Encoded date : UTC 2021-09-13 09:57:06

  12. Writing application : mkvmerge v38.0.0 ('The Silent Type') 64-bit

  13. Writing library : libebml v1.3.9 + libmatroska v1.5.2

  14. Video

  15. ID : 1

  16. Format : HEVC

  17. Format/Info : High Efficiency Video Coding

  18. Format profile : Main [email protected]@High

  19. Codec ID : V_MPEGH/ISO/HEVC

  20. Duration : 1 h 40 min

  21. Bit rate : 8 277 kb/s

  22. Width : 1 920 pixels

  23. Height : 1 036 pixels

  24. Display aspect ratio : 1.85:1

  25. Frame rate mode : Constant

  26. Frame rate : 23.976 (24000/1001/53354) FPS

  27. Color space : YUV

  28. Chroma subsampling : 4:2:0

  29. Bit depth : 10 bits

  30. Bits/(Pixel*Frame) : 0.174

  31. Stream size : 5.79 GiB (84%)

  32. Title : @HDSky

  33. Writing library : x265 - H.265/HEVC codec

  34. Default : Yes

  35. Forced : No

  36. Audio

  37. ID : 2

  38. Format : DTS 96/24

  39. Format/Info : Digital Theater Systems

  40. Commercial name : DTS 96/24

  41. Codec ID : A_DTS

  42. Duration : 1 h 40 min

  43. Bit rate mode : Constant

  44. Bit rate : 1 509 kb/s

  45. Channel(s) : 6 channels

  46. Channel layout : C L R Ls Rs LFE

  47. Sampling rate : 96.0 kHz

  48. Frame rate : 187.500 FPS (512 SPF)

  49. Bit depth : 24 bits

  50. Compression mode : Lossy

  51. Stream size : 1.06 GiB (15%)

  52. Title : English

  53. Language : English

  54. Default : Yes

  55. Forced : No

  56. Text #1

  57. ID : 3

  58. Format : PGS

  59. Muxing mode : zlib

  60. Codec ID : S_HDMV/PGS

  61. Codec ID/Info : Picture based subtitle format used on BDs/HD-DVDs

  62. Duration : 1 h 37 min

  63. Bit rate : 56.5 kb/s

  64. Count of elements : 2840

  65. Stream size : 39.3 MiB (1%)

  66. Title : ENG

  67. Language : English

  68. Default : Yes

  69. Forced : No

  70. Text #2

  71. ID : 4

  72. Format : PGS

  73. Muxing mode : zlib

  74. Codec ID : S_HDMV/PGS

  75. Codec ID/Info : Picture based subtitle format used on BDs/HD-DVDs

  76. Duration : 1 h 37 min

  77. Bit rate : 21.6 kb/s

  78. Count of elements : 2340

  79. Stream size : 15.0 MiB (0%)

  80. Title : CHS

  81. Language : Chinese

  82. Default : No

  83. Forced : No

  84. Text #3

  85. ID : 5

  86. Format : PGS

  87. Muxing mode : zlib

  88. Codec ID : S_HDMV/PGS

  89. Codec ID/Info : Picture based subtitle format used on BDs/HD-DVDs

  90. Duration : 1 h 37 min

  91. Bit rate : 22.4 kb/s

  92. Count of elements : 2340

  93. Stream size : 15.6 MiB (0%)

  94. Title : CHT

  95. Language : Chinese

  96. Default : No

  97. Forced : No

  98. Menu

  99. 00:00:00.000 : en:Chapter 01

  100. 00:05:28.912 : en:Chapter 02

  101. 00:11:04.664 : en:Chapter 03

  102. 00:14:56.521 : en:Chapter 04

  103. 00:20:40.156 : en:Chapter 05

  104. 00:22:50.452 : en:Chapter 06

  105. 00:30:25.240 : en:Chapter 07

  106. 00:34:04.960 : en:Chapter 08

  107. 00:40:20.877 : en:Chapter 09

  108. 00:49:59.747 : en:Chapter 10

  109. 00:54:01.655 : en:Chapter 11

  110. 00:57:02.669 : en:Chapter 12

  111. 01:06:39.746 : en:Chapter 13

  112. 01:09:12.023 : en:Chapter 14

  113. 01:17:07.331 : en:Chapter 15

  114. 01:34:05.431 : en:Chapter 16

  115. 01:37:38.269 : en:Chapter 17


文件下载


除非特别注明,本文『性、谎言和录像带[中文字幕].Sex.Lies.and.Videotape.1989.1080p 6.87GB』来源于互联网机器人自动抓取,非本站原创。 浮游电影网不对本文拥有版权,如有侵犯,请联系邮箱:fuyouu#yandex.com[#换成@]投诉。我们会在15个工作日内删除。 但烦请转载时请标明出处:“本文转载于『浮游电影网』,原文地址:https://www.fuyouu.com/14391.html

评论吧骚年!

发表你的见解   

昵称*

E-mail*(建议输入,以便收到博主回复的提示邮件)

验证码*

您可以使用eMule或eMule Mod(Windows)、aMule(Win、Linux、Mac)等软件下载eD2k链接。。
eMule收藏集(.emulecollection)文件是您选中的所有链接的列表文件。eMule可以直接下载它们。
按住SHIFT键选择可以选中多个选择框。
可用文件名和大小选择器来选择文件。
文件名选择器帮您根据文件名称或后缀来选择文件。不分大小写。
符号使用:
和:空格( )、+
不包含:-
或:|
转义:一对英文引号("");
匹配开头:^
匹配结尾:$
例如:
选中所有名称中包含有“eMule”或“0.49c”字眼,但不包含有“exe”字眼的:emule|0.49c -exe
选中所有名称的开头是“eMule”,结尾是“0.49c”的:^emule 0.49c$
选中所有名称中带有“eMule 0.49c”的(必须是“eMule 0.49c”,中间没有别的字符,不能是“eMule fake 0.49c”),需要转义:"emule 0.49c"
大小选择器帮您根据文件大小选择文件。