当前位置: 首页 >> 欧美电影 >> 人鼠之间[中文字幕].Of.Mice.And.Men.1992.1080p 12.14GB >> 正文

人鼠之间[中文字幕].Of.Mice.And.Men.1992.1080p 12.14GB

2021年09月16日 22:09:35     电影发布:来源于网络     电影分类:欧美电影     评论(0)    

人鼠之间[中文字幕].Of.Mice.And.Men.1992.1080p 12.14GB 剧情片 欧美电影  第1张

◎译 名 人鼠之间 / 鼠与人

◎片 名 Of Mice and Men

◎年 代 1992

◎产 地 美国

◎类 别 剧情

◎语 言 英语

◎上映日期 1992-09-16

◎IMDb链接 https://www.imdb.com/title/tt0105046/

◎豆瓣评分 8.0/10 (773人评价)

◎豆瓣链接 https://movie.douban.com/subject/1294679/

◎片 长 115 分钟

◎导 演 加里·西尼斯 Gary Sinise (id:1031848)

◎编 剧 霍顿·福特 Horton Foote (id:1032560)

◎演 员 约翰·马尔科维奇 John Malkovich (id:1041013)

加里·西尼斯 Gary Sinise (id:1031848)

雷·沃尔斯顿 Ray Walston (id:1036564)

凯西·希玛兹科 Casey Siemaszko (id:1144743)

雪琳·芬 Sherilyn Fenn (id:1004609)

Robert L. Sinise Robert L. Sinise (id:1297703)

Amanda Mackey Johnson Amanda Mackey Johnson (id:1290650)

凯茜·桑德里奇 Cathy Sandrich (id:1296638)

Dan Davis Dan Davis (id:1281903)

Karen Schulz Gropman Karen Schulz Gropman (id:1285516)

谢·坎利夫 Shay Cunliffe (id:1281606)

Bonita DeHaven Bonita DeHaven (id:1282150)

Tammy Ashmore Tammy Ashmore (id:1277494)

Cara Giallanza Cara Giallanza (id:1284785)

◎标 签 美国 / 人鼠之间 / 美国电影 / 剧情 / 小说改编 / 1992 / 生活 / 人性

◎简 介

蓝尼犯了一点小错误,他摸了女孩的衣服,却被村民误会而追补,好友乔治带他一起往南方亡……。他俩梦想买块地,然而智力仅有孩童的蓝尼却不断犯错,每惹麻烦,他们就得离开,存不了钱。在牧场他们努力工作编织梦想。不料蓝尼又犯了错,他不小心扭断了女主人的脖子,这回乔治不再带著蓝尼逃亡了,却做了最悲凉,最无可奈何的决定……

◎获奖情况 (共1项)

第45届戛纳电影节 (1992)

主竞赛单元 金棕榈奖(提名)

└──加里·西尼斯 (id:1031848)

  1. ##### MediaInfo ######

  2. General

  3. Unique ID : 73704392084859714960515707915031703314 (0x3772F317575AC895ECFEB049C7926F12)

  4. Complete name : [email protected]DDQ.COM.mkv

  5. Format : Matroska

  6. Format version : Version 4

  7. File size : 12.1 GiB

  8. Duration : 1 h 50 min

  9. Overall bit rate : 15.7 Mb/s

  10. Movie name : Of Mice And Men 1992 1080p BluRay DTS [email protected]

  11. Encoded date : UTC 2021-09-13 07:01:36

  12. Writing application : mkvmerge v38.0.0 ('The Silent Type') 64-bit

  13. Writing library : libebml v1.3.9 + libmatroska v1.5.2

  14. Video

  15. ID : 1

  16. Format : HEVC

  17. Format/Info : High Efficiency Video Coding

  18. Format profile : Main [email protected]@High

  19. Codec ID : V_MPEGH/ISO/HEVC

  20. Duration : 1 h 50 min

  21. Bit rate : 14.1 Mb/s

  22. Width : 1 920 pixels

  23. Height : 1 040 pixels

  24. Display aspect ratio : 1.85:1

  25. Frame rate mode : Constant

  26. Frame rate : 23.976 (24000/1001/53354) FPS

  27. Color space : YUV

  28. Chroma subsampling : 4:2:0

  29. Bit depth : 10 bits

  30. Bits/(Pixel*Frame) : 0.295

  31. Stream size : 10.9 GiB (90%)

  32. Title : @HDSky

  33. Writing library : x265 - H.265/HEVC codec

  34. Default : Yes

  35. Forced : No

  36. Audio

  37. ID : 2

  38. Format : DTS

  39. Format/Info : Digital Theater Systems

  40. Codec ID : A_DTS

  41. Duration : 1 h 50 min

  42. Bit rate mode : Constant

  43. Bit rate : 1 509 kb/s

  44. Channel(s) : 2 channels

  45. Channel layout : L R

  46. Sampling rate : 48.0 kHz

  47. Frame rate : 93.750 FPS (512 SPF)

  48. Bit depth : 24 bits

  49. Compression mode : Lossy

  50. Stream size : 1.17 GiB (10%)

  51. Title : English

  52. Language : English

  53. Default : Yes

  54. Forced : No

  55. Text #1

  56. ID : 3

  57. Format : PGS

  58. Muxing mode : zlib

  59. Codec ID : S_HDMV/PGS

  60. Codec ID/Info : Picture based subtitle format used on BDs/HD-DVDs

  61. Duration : 1 h 44 min

  62. Bit rate : 30.4 kb/s

  63. Count of elements : 2056

  64. Stream size : 22.7 MiB (0%)

  65. Title : CHS

  66. Language : Chinese

  67. Default : Yes

  68. Forced : No

  69. Text #2

  70. ID : 4

  71. Format : PGS

  72. Muxing mode : zlib

  73. Codec ID : S_HDMV/PGS

  74. Codec ID/Info : Picture based subtitle format used on BDs/HD-DVDs

  75. Duration : 1 h 44 min

  76. Bit rate : 31.1 kb/s

  77. Count of elements : 2056

  78. Stream size : 23.2 MiB (0%)

  79. Title : CHT

  80. Language : Chinese

  81. Default : No

  82. Forced : No


文件下载


除非特别注明,本文『人鼠之间[中文字幕].Of.Mice.And.Men.1992.1080p 12.14GB』来源于互联网机器人自动抓取,非本站原创。 浮游电影网不对本文拥有版权,如有侵犯,请联系邮箱:fuyouu#yandex.com[#换成@]投诉。我们会在15个工作日内删除。 但烦请转载时请标明出处:“本文转载于『浮游电影网』,原文地址:https://www.fuyouu.com/14389.html

评论吧骚年!

发表你的见解   

昵称*

E-mail*(建议输入,以便收到博主回复的提示邮件)

验证码*

您可以使用eMule或eMule Mod(Windows)、aMule(Win、Linux、Mac)等软件下载eD2k链接。。
eMule收藏集(.emulecollection)文件是您选中的所有链接的列表文件。eMule可以直接下载它们。
按住SHIFT键选择可以选中多个选择框。
可用文件名和大小选择器来选择文件。
文件名选择器帮您根据文件名称或后缀来选择文件。不分大小写。
符号使用:
和:空格( )、+
不包含:-
或:|
转义:一对英文引号("");
匹配开头:^
匹配结尾:$
例如:
选中所有名称中包含有“eMule”或“0.49c”字眼,但不包含有“exe”字眼的:emule|0.49c -exe
选中所有名称的开头是“eMule”,结尾是“0.49c”的:^emule 0.49c$
选中所有名称中带有“eMule 0.49c”的(必须是“eMule 0.49c”,中间没有别的字符,不能是“eMule fake 0.49c”),需要转义:"emule 0.49c"
大小选择器帮您根据文件大小选择文件。