当前位置: 首页 >> 欧美电影 >> 洗发水[中文字幕].Shampoo.1975.1080p.BluRay.x265.10bit.DTS 8.44GB >> 正文

洗发水[中文字幕].Shampoo.1975.1080p.BluRay.x265.10bit.DTS 8.44GB

2021年09月16日 22:06:38     电影发布:来源于网络     电影分类:欧美电影     评论(0)    

洗发水[中文字幕].Shampoo.1975.1080p.BluRay.x265.10bit.DTS 8.44GB 喜剧片 剧情片 欧美电影  第1张

◎译 名 洗发水 / 洗头 / 洗发精 / 香波

◎片 名 Shampoo

◎年 代 1975

◎产 地 美国

◎类 别 剧情 / 喜剧

◎语 言 英语

◎上映日期 1975-03-13

◎IMDb链接 https://www.imdb.com/title/tt0073692/

◎豆瓣评分 6.6/10 (207人评价)

◎豆瓣链接 https://movie.douban.com/subject/1303349/

◎片 长 109 分钟

◎导 演 哈尔·阿什贝 Hal Ashby (id:1049927)

◎编 剧 罗伯特·汤 Robert Towne (id:1036789)

沃伦·比蒂 Warren Beatty (id:1002722)

◎演 员 沃伦·比蒂 Warren Beatty (id:1002722)

朱莉·克里斯蒂 Julie Christie (id:1000086)

歌蒂·韩 Goldie Hawn (id:1041107)

李·格兰特 Lee Grant (id:1041192)

杰克·瓦尔登 Jack Warden (id:1049751)

凯瑟琳·米勒 Kathleen Miller (id:1116674)

Doris Packer Doris Packer (id:1131946)

科林·布伦南 Colleen Brennan (id:1105947)

Arthur Tovey Arthur Tovey (id:1150310)

Faye Michael Nuell Faye Michael Nuell (id:1130716)

罗伯特·汤 Robert Towne (id:1036789)

布拉德·德克斯特 Brad Dexter (id:1002832)

辛西娅·伍德 Cynthia Wood (id:1161182)

Don Ames Don Ames (id:1057209)

苏珊·麦基弗 Susan McIver (id:1325116)

霍华德·海瑟曼 Howard Hesseman (id:1092055)

乔治·菲尔特 George Furth (id:1087086)

Howard Culver Howard Culver (id:1070627)

威廉·卡斯尔 William Castle (id:1048292)

卢安娜·安德斯 Luana Anders (id:1048303)

凯丽·费雪 Carrie Fisher (id:1027813)

苏珊·布莱克利 Susan Blakely (id:1049765)

托尼·比尔 Tony Bill (id:1050064)

安德鲁 史蒂文斯 Andrew Stevens (id:1019127)

杰克·伯纳迪 Jack Bernardi (id:1062274)

米雪·菲利普斯 Michelle Phillips (id:1019093)

Hal Buckley Hal Buckley (id:1069220)

琼·马歇尔 Joan Marshall (id:1018398)

杰伊·鲁宾逊 Jay Robinson (id:1145104)

Charles H. Maguire Charles H. Maguire (id:1043521)

沃伦·比蒂 Warren Beatty (id:1002722)

保罗·西蒙 Paul Simon (id:1152050)

拉兹洛·科瓦奇 László Kovács (id:1048332)

罗伯特·C·琼斯 Robert C. Jones (id:1276269)

迈克·芬顿 Mike Fenton (id:1283570)

乔治·盖尼斯 George Gaines (id:1097770)

W·斯图尔特·坎贝尔 W. Stewart Campbell (id:1279996)

理查德·希尔伯特 Richard Sylbert (id:1003504)

安西娅·塞尔伯特 Anthea Sylbert (id:1029408)

凯瑟琳·布伦黛尔 Kathryn Blondell (id:1067362)

E. Thomas Case E. Thomas Case (id:1070114)

Jan Van Uchelen Jan Van Uchelen (id:1153143)

Ron Wright Ron Wright (id:1166734)

◎标 签 美国 / 喜剧 / 1970s / 1975 / 美国电影 / WarrenBeatty / HalAshby / Warren_Beatty

◎简 介

乔治(沃伦·比蒂 Warren Beatty 饰)是一名美容师,经过他那双神奇的手打理过后,所有的女人都会变得容光焕发。随着业务量的增长,女友吉尔(歌蒂·韩 Goldie Hawn 饰)鼓励乔治开设自己的美容院,可是,在这块寸土寸金的地方,想要拥有自己的一席之地谈何容易呢。

乔治找到了生意人莱斯特(杰克·瓦尔登 Jack Warden 饰),想要说服他投资自己的美容院,而莱斯特并不知道的是,风流成性的乔治,不仅和自己的妻子有不清不楚的关系,甚至和他的女儿也走的很近。世界上哪有密不透风的墙呢,当吉尔得知了乔治的这些花边新闻后,还能够坚定地站在他身边支持他吗?

◎获奖情况 (共4项)

第48届奥斯卡金像奖 (1976)

最佳男配角(提名)

└──杰克·瓦尔登 (id:1049751)

最佳女配角

└──李·格兰特 (id:1041192)

最佳原创剧本(提名)

最佳艺术指导(提名)

  1. ##### MediaInfo ######

  2. General

  3. Unique ID : 247676937325328627455191217608484960308 (0xBA54D7CFB1772D8CAD2FB75AB127B834)

  4. Complete name : [email protected]

  5. Format : Matroska

  6. Format version : Version 4

  7. File size : 8.44 GiB

  8. Duration : 1 h 50 min

  9. Overall bit rate : 11.0 Mb/s

  10. Movie name : Shampoo 1975

  11. Encoded date : UTC 2021-09-12 02:40:55

  12. Writing application : mkvmerge v61.0.0 ('So') 64-bit

  13. Writing library : libebml v1.4.2 + libmatroska v1.6.4

  14. Cover : Yes

  15. Attachments : cover.jpg

  16. Video

  17. ID : 1

  18. Format : HEVC

  19. Format/Info : High Efficiency Video Coding

  20. Format profile : Main [email protected]@Main

  21. Codec ID : V_MPEGH/ISO/HEVC

  22. Duration : 1 h 50 min

  23. Bit rate : 9 364 kb/s

  24. Width : 1 920 pixels

  25. Height : 1 080 pixels

  26. Display aspect ratio : 16:9

  27. Frame rate mode : Constant

  28. Frame rate : 23.976 (24000/1001/53354) FPS

  29. Color space : YUV

  30. Chroma subsampling : 4:2:0

  31. Bit depth : 10 bits

  32. Bits/(Pixel*Frame) : 0.188

  33. Stream size : 7.21 GiB (85%)

  34. Writing library : x265 3.5+2-g2b25c9ba0+45:[Windows][GCC 10.2.0][64 bit] Yuuki 10bit+8bit+12bit

  35. Encoding settings : rc=crf / crf=23.0000 / qcomp=0.60 / qpstep=4 / stats-write=0 / stats-read=0 / no-lossless / no-cu-lossless / aq-mode=3 / aq-strength=0.80 / cbqpoffs=0 / crqpoffs=0 / ipratio=1.40 / pbratio=1.30 / psy-rd=2.00 / psy-rdoq=0.00 / deblock=0:0 / ref=6 / limit-refs=1 / no-limit-modes / bframes=8 / b-adapt=2 / bframe-bias=0 / b-pyramid / b-intra / weightp / weightb / min-keyint=24 / max-keyint=240 / rc-lookahead=24 / gop-lookahead=0 / NTMzNTQ=uuDQuD2mJt9fsCf / scenecut=40 / hist-scenecut=0 / radl=0 / max-cu-size=64 / min-cu-size=8 / me=3 / subme=7 / merange=48 / rdoq-level=0 / rd=4 / rdpenalty=0 / dynamic-rd=0.00 / no-rd-refine / ----- / cutree / sao / no-rect / no-amp / no-open-gop / wpp / no-pmode / no-pme / no-psnr / no-ssim / nr-intra=0 / nr-inter=0 / no-constrained-intra / no-strong-intra-smoothing / max-tu-size=32 / tu-inter-depth=1 / tu-intra-depth=1 / limit-tu=0 / qg-size=32 / qpmax=69 / qpmin=0 / ----- / cpuid=533541111039 / frame-threads=4 / numa-pools=+ / log-level=2 / input-csp=1 / input-res=1920x1080 / interlace=0 / level-idc=0 / high-tier=1 / uhd-bd=0 / no-allow-non-conformance / repeat-headers / aud / no-hrd / info / hash=0 / no-temporal-layers / lookahead-slices=0 / no-splice / no-intra-refresh / no-ssim-rd / signhide / no-tskip / max-merge=3 / temporal-mvp / no-frame-dup / no-hme / no-analyze-src-pics / no-sao-non-deblock / selective-sao=4 / early-skip / rskip / no-fast-intra / no-tskip-fast / no-splitrd-skip / zone-count=0 / no-strict-cbr / no-rc-grain / no-const-vbv / sar=0 / overscan=0 / videoformat=5 / range=0 / colorprim=2 / transfer=2 / colormatrix=2 / chromaloc=0 / display-window=0 / cll=0,0 / min-luma=0 / max-luma=1023 / log2-max-poc-lsb=8 / vui-timing-info / vui-hrd-info / slices=1 / no-opt-qp-pps / no-opt-ref-list-length-pps / no-multi-pass-opt-rps / scenecut-bias=0.05 / hist-threshold=0.03 / no-opt-cu-delta-qp / no-aq-motion / no-hdr10 / no-hdr10-opt / no-dhdr10-opt / no-idr-recovery-sei / analysis-reuse-level=0 / analysis-save-reuse-level=0 / analysis-load-reuse-level=0 / scale-factor=0 / refine-intra=0 / refine-inter=0 / refine-mv=1 / refine-ctu-distortion=0 / no-limit-sao / ctu-info=0 / no-lowpass-dct / refine-analysis-type=0 / copy-pic=1 / max-ausize-factor=1.0 / no-dynamic-refine / no-single-sei / no-hevc-aq / no-svt / no-field / qp-adaptation-range=1.00 / scenecut-aware-qp=0conformance-window-offsets / right=0 / bottom=0 / NTMzNTQ= / decoder-max-rate=0 / no-vbv-live-multi-pass

  36. Default : Yes

  37. Forced : No

  38. Audio

  39. ID : 2

  40. ID in the original source medium : 4353 (0x1101)

  41. Format : DTS

  42. Format/Info : Digital Theater Systems

  43. Codec ID : A_DTS

  44. Duration : 1 h 50 min

  45. Bit rate mode : Constant

  46. Bit rate : 1 509 kb/s

  47. Channel(s) : 6 channels

  48. Channel layout : C L R Ls Rs LFE

  49. Sampling rate : 48.0 kHz

  50. Frame rate : 93.750 FPS (512 SPF)

  51. Bit depth : 24 bits

  52. Compression mode : Lossy

  53. Stream size : 1.16 GiB (14%)

  54. Language : English

  55. Default : Yes

  56. Forced : No

  57. Original source medium : Blu-ray

  58. Text #1

  59. ID : 3

  60. ID in the original source medium : 4609 (0x1201)

  61. Format : PGS

  62. Muxing mode : zlib

  63. Codec ID : S_HDMV/PGS

  64. Codec ID/Info : Picture based subtitle format used on BDs/HD-DVDs

  65. Duration : 1 h 46 min

  66. Bit rate : 52.4 kb/s

  67. Count of elements : 2921

  68. Stream size : 39.9 MiB (0%)

  69. Title : chs&eng

  70. Language : Chinese

  71. Default : Yes

  72. Forced : No

  73. Original source medium : Blu-ray

  74. Text #2

  75. ID : 4

  76. ID in the original source medium : 4610 (0x1202)

  77. Format : PGS

  78. Muxing mode : zlib

  79. Codec ID : S_HDMV/PGS

  80. Codec ID/Info : Picture based subtitle format used on BDs/HD-DVDs

  81. Duration : 1 h 46 min

  82. Bit rate : 52.8 kb/s

  83. Count of elements : 2921

  84. Stream size : 40.2 MiB (0%)

  85. Title : cht&eng

  86. Language : Chinese

  87. Default : No

  88. Forced : No

  89. Original source medium : Blu-ray

  90. Text #3

  91. ID : 5

  92. ID in the original source medium : 4611 (0x1203)

  93. Format : PGS

  94. Muxing mode : zlib

  95. Codec ID : S_HDMV/PGS

  96. Codec ID/Info : Picture based subtitle format used on BDs/HD-DVDs

  97. Duration : 1 h 46 min

  98. Bit rate : 30.7 kb/s

  99. Count of elements : 2921

  100. Stream size : 23.4 MiB (0%)

  101. Title : chs

  102. Language : Chinese

  103. Default : No

  104. Forced : No

  105. Original source medium : Blu-ray

  106. Text #4

  107. ID : 6

  108. ID in the original source medium : 4612 (0x1204)

  109. Format : PGS

  110. Muxing mode : zlib

  111. Codec ID : S_HDMV/PGS

  112. Codec ID/Info : Picture based subtitle format used on BDs/HD-DVDs

  113. Duration : 1 h 46 min

  114. Bit rate : 31.1 kb/s

  115. Count of elements : 2921

  116. Stream size : 23.7 MiB (0%)

  117. Title : cht

  118. Language : Chinese

  119. Default : No

  120. Forced : No

  121. Original source medium : Blu-ray

  122. Text #5

  123. ID : 7

  124. ID in the original source medium : 4608 (0x1200)

  125. Format : PGS

  126. Muxing mode : zlib

  127. Codec ID : S_HDMV/PGS

  128. Codec ID/Info : Picture based subtitle format used on BDs/HD-DVDs

  129. Duration : 1 h 49 min

  130. Bit rate : 64.9 kb/s

  131. Count of elements : 3532

  132. Stream size : 50.9 MiB (1%)

  133. Language : English

  134. Default : No

  135. Forced : No

  136. Original source medium : Blu-ray

  137. Menu

  138. 00:00:00.000 : Chapter 01

  139. 00:10:17.700 : Chapter 02

  140. 00:22:19.504 : Chapter 03

  141. 00:32:55.640 : Chapter 04

  142. 00:45:29.143 : Chapter 05

  143. 00:56:32.389 : Chapter 06

  144. 01:06:24.772 : Chapter 07

  145. 01:12:49.031 : Chapter 08

  146. 01:19:07.534 : Chapter 09

  147. 01:27:15.146 : Chapter 10

  148. 01:39:16.575 : Chapter 11


文件下载


除非特别注明,本文『洗发水[中文字幕].Shampoo.1975.1080p.BluRay.x265.10bit.DTS 8.44GB』来源于互联网机器人自动抓取,非本站原创。 浮游电影网不对本文拥有版权,如有侵犯,请联系邮箱:fuyouu#yandex.com[#换成@]投诉。我们会在15个工作日内删除。 但烦请转载时请标明出处:“本文转载于『浮游电影网』,原文地址:https://www.fuyouu.com/14387.html

评论吧骚年!

发表你的见解   

昵称*

E-mail*(建议输入,以便收到博主回复的提示邮件)

验证码*

您可以使用eMule或eMule Mod(Windows)、aMule(Win、Linux、Mac)等软件下载eD2k链接。。
eMule收藏集(.emulecollection)文件是您选中的所有链接的列表文件。eMule可以直接下载它们。
按住SHIFT键选择可以选中多个选择框。
可用文件名和大小选择器来选择文件。
文件名选择器帮您根据文件名称或后缀来选择文件。不分大小写。
符号使用:
和:空格( )、+
不包含:-
或:|
转义:一对英文引号("");
匹配开头:^
匹配结尾:$
例如:
选中所有名称中包含有“eMule”或“0.49c”字眼,但不包含有“exe”字眼的:emule|0.49c -exe
选中所有名称的开头是“eMule”,结尾是“0.49c”的:^emule 0.49c$
选中所有名称中带有“eMule 0.49c”的(必须是“eMule 0.49c”,中间没有别的字符,不能是“eMule fake 0.49c”),需要转义:"emule 0.49c"
大小选择器帮您根据文件大小选择文件。