当前位置: 首页 >> 欧美电影 >> 找到你了[简繁字幕].I.See.You.2019.1080p.BluRay.x265.10bit.DD.5.1.MNHD 5.51GB >> 正文

找到你了[简繁字幕].I.See.You.2019.1080p.BluRay.x265.10bit.DD.5.1.MNHD 5.51GB

2021年09月15日 10:16:11     电影发布:来源于网络     电影分类:欧美电影     评论(0)    

找到你了[简繁字幕].I.See.You.2019.1080p.BluRay.x265.10bit.DD.5.1.MNHD 5.51GB 犯罪片 恐怖片 剧情片 欧美电影  第1张

◎译 名 找到你了 / 搞鬼(台) / 我看见你了

◎片 名 I See You

◎年 代 2019

◎产 地 美国

◎类 别 剧情 / 恐怖 / 犯罪

◎语 言 英语

◎上映日期 2019-12-06(美国)

◎IMDb链接 https://www.imdb.com/title/tt6079516/

◎豆瓣评分 6.7/10 (10111人评价)

◎豆瓣链接 https://movie.douban.com/subject/27066196/

◎片 长 96分钟

◎导 演 亚当·兰道 Adam Randall (id:1224204)

◎编 剧 德文·格拉耶 Devon Graye (id:1173922)

◎演 员 海伦·亨特 Helen Hunt (id:1019017)

乔恩·坦尼 Jon Tenney (id:1159716)

犹大·刘易斯 Judah Lewis (id:1350091)

欧文·泰格 Owen Teague (id:1380982)

莉碧·巴勒尔 Libe Barer (id:1363368)

妮可·福斯特 Nicole Forester (id:1343414)

埃里卡·亚历山大 Erika Alexander (id:1055164)

阿利森·金 Allison King (id:1383437)

山姆·特拉梅尔 Sam Trammell (id:1044711)

约翰·纽伯格 John Newberg (id:1424039)

◎标 签 悬疑 / 惊悚 / 犯罪 / 美国 / 恐怖 / 恐怖/惊悚 / 2019 / 美国电影

◎简 介

海伦·亨特加盟亚当·兰道([奇机少年])执导恐怖片[找到了](I See You,暂译)。一位儿童诱拐调查员忍受着妻子出轨的痛苦,妻子也因内疚逐渐变得情绪失常。邪恶之力渐渐入侵他们的家庭,两人的儿子也因此陷入了致命危险当中。本作将于今夏在克利夫兰开机。

  1. ##### MediaInfo ######

  2. General

  3. Unique ID : 274392224397587629968849586063929916855 (0xCE6E052861D85C66BCDFBB3EFEEA3DB7)

  4. Complete name : I.See.You.2019.1080p.BluRay.x265.10bit.DD.5.1.MNHD-10018@BBQDDQ.COM.mkv

  5. Format : Matroska

  6. Format version : Version 4

  7. File size : 5.51 GiB

  8. Duration : 1 h 37 min

  9. Overall bit rate : 8 072 kb/s

  10. Movie name : I.See.You.2019.1080p.BluRay.x265.10bit.DD.5.1.MNHD-10018@BBQDDQ.COM

  11. Encoded date : UTC 2021-09-12 21:49:35

  12. Writing application : mkvmerge v53.0.0 ('Fool's Gold') 64-bit

  13. Writing library : libebml v1.4.1 + libmatroska v1.6.2


  14. Video

  15. ID : 1

  16. Format : HEVC

  17. Format/Info : High Efficiency Video Coding

  18. Format profile : Main 10@L5.1@High

  19. Codec ID : V_MPEGH/ISO/HEVC

  20. Duration : 1 h 37 min

  21. Bit rate : 7 430 kb/s

  22. Width : 1 920 pixels

  23. Height : 804 pixels

  24. Display aspect ratio : 2.40:1

  25. Frame rate mode : Constant

  26. Frame rate : 24.000 FPS

  27. Color space : YUV

  28. Chroma subsampling : 4:2:0

  29. Bit depth : 10 bits

  30. Bits/(Pixel*Frame) : 0.201

  31. Stream size : 5.07 GiB (92%)

  32. Writing library : x265 3.5+1-f0c1022b6:[Linux][GCC 9.3.0][64 bit] 10bit

  33. Encoding settings : cpuid=533541111039 / frame-threads=3 / numa-pools=11 / wpp / pmode / no-pme / no-psnr / no-ssim / log-level=2 / input-csp=1 / input-res=1920x804 / interlace=0 / total-frames=140795 / level-idc=0 / high-tier=1 / uhd-bd=0 / ref=4 / no-allow-non-conformance / no-repeat-headers / annexb / no-aud / no-hrd / info / hash=0 / no-temporal-layers / no-open-gop / min-keyint=1 / keyint=250 / gop-lookahead=0 / bframes=6 / b-adapt=2 / b-pyramid / bframe-bias=0 / rc-lookahead=80 / lookahead-slices=0 / NTMzNTQ=uuDQuD2mJt9fsCf / scenecut=40 / hist-scenecut=0 / radl=0 / no-splice / no-intra-refresh / ctu=32 / min-cu-size=8 / no-rect / no-amp / max-tu-size=32 / tu-inter-depth=4 / tu-intra-depth=4 / limit-tu=0 / rdoq-level=2 / dynamic-rd=0.00 / no-ssim-rd / signhide / no-tskip / nr-intra=0 / nr-inter=0 / no-constrained-intra / strong-intra-smoothing / max-merge=5 / limit-refs=0 / no-limit-modes / me=3 / subme=7 / merange=57 / temporal-mvp / no-frame-dup / no-hme / weightp / weightb / no-analyze-src-pics / deblock=-3:-3 / no-sao / no-sao-non-deblock / rd=4 / selective-sao=0 / no-early-skip / no-rskip / no-fast-intra / no-tskip-fast / no-cu-lossless / b-intra / no-splitrd-skip / rdpenalty=0 / psy-rd=1.50 / psy-rdoq=1.00 / no-rd-refine / no-lossless / cbqpoffs=-2 / crqpoffs=-2 / rc=crf / crf=18.5 / qcomp=0.65 / qpstep=4 / stats-write=0 / stats-read=0 / vbv-maxrate=160000 / vbv-bufsize=160000 / vbv-init=0.9 / min-vbv-fullness=50.0 / max-vbv-fullness=80.0 / crf-max=0.0 / crf-min=0.0 / ipratio=1.30 / pbratio=1.20 / aq-mode=1 / aq-strength=1.00 / no-cutree / zone-count=0 / no-strict-cbr / qg-size=8 / no-rc-grain / qpmax=69 / qpmin=0 / no-const-vbv / sar=0 / overscan=0 / videoformat=5 / range=0 / colorprim=1 / transfer=1 / colormatrix=1 / chromaloc=0 / display-window=0 / cll=0,0 / min-luma=0 / max-luma=1023 / log2-max-poc-lsb=8 / vui-timing-info / vui-hrd-info / slices=1 / no-opt-qp-pps / no-opt-ref-list-length-pps / no-multi-pass-opt-rps / scenecut-bias=0.05 / hist-threshold=0.03 / no-opt-cu-delta-qp / no-aq-motion / no-hdr10 / no-hdr10-opt / no-dhdr10-opt / no-idr-recovery-sei / analysis-reuse-level=0 / analysis-save-reuse-level=0 / analysis-load-reuse-level=0 / scale-factor=0 / refine-intra=0 / refine-inter=0 / refine-mv=1 / refine-ctu-distortion=0 / no-limit-sao / ctu-info=0 / no-lowpass-dct / refine-analysis-type=0 / copy-pic=1 / max-ausize-factor=1.0 / no-dynamic-refine / no-single-sei / no-hevc-aq / no-svt / no-field / qp-adaptation-range=1.00 / scenecut-aware-qp=0conformance-window-offsets / right=0 / bottom=0 / NTMzNTQ= / decoder-max-rate=0 / no-vbv-live-multi-pass

  34. Default : Yes

  35. Forced : No

  36. Color range : Limited

  37. Color primaries : BT.709

  38. Transfer characteristics : BT.709

  39. Matrix coefficients : BT.709


  40. Audio

  41. ID : 2

  42. Format : AC-3

  43. Format/Info : Audio Coding 3

  44. Commercial name : Dolby Digital

  45. Codec ID : A_AC3

  46. Duration : 1 h 37 min

  47. Bit rate mode : Constant

  48. Bit rate : 640 kb/s

  49. Channel(s) : 6 channels

  50. Channel layout : L R C LFE Ls Rs

  51. Sampling rate : 48.0 kHz

  52. Frame rate : 31.250 FPS (1536 SPF)

  53. Compression mode : Lossy

  54. Stream size : 448 MiB (8%)

  55. Title : English

  56. Language : English

  57. Service kind : Complete Main

  58. Default : Yes

  59. Forced : No


  60. Text #1

  61. ID : 3

  62. Format : UTF-8

  63. Codec ID : S_TEXT/UTF8

  64. Codec ID/Info : UTF-8 Plain Text

  65. Duration : 1 h 25 min

  66. Bit rate : 84 b/s

  67. Count of elements : 807

  68. Stream size : 53.0 KiB (0%)

  69. Title : Chinese (Simplified)&English

  70. Language : Chinese

  71. Default : Yes

  72. Forced : No


  73. Text #2

  74. ID : 4

  75. Format : UTF-8

  76. Codec ID : S_TEXT/UTF8

  77. Codec ID/Info : UTF-8 Plain Text

  78. Duration : 1 h 25 min

  79. Bit rate : 84 b/s

  80. Count of elements : 807

  81. Stream size : 53.0 KiB (0%)

  82. Title : Chinese (Traditional)&English

  83. Language : Chinese

  84. Default : No

  85. Forced : No


  86. Text #3

  87. ID : 5

  88. Format : UTF-8

  89. Codec ID : S_TEXT/UTF8

  90. Codec ID/Info : UTF-8 Plain Text

  91. Duration : 1 h 25 min

  92. Bit rate : 29 b/s

  93. Count of elements : 807

  94. Stream size : 18.6 KiB (0%)

  95. Title : Chinese (Simplified)

  96. Language : Chinese

  97. Default : No

  98. Forced : No


  99. Text #4

  100. ID : 6

  101. Format : UTF-8

  102. Codec ID : S_TEXT/UTF8

  103. Codec ID/Info : UTF-8 Plain Text

  104. Duration : 1 h 25 min

  105. Bit rate : 29 b/s

  106. Count of elements : 807

  107. Stream size : 18.6 KiB (0%)

  108. Title : Chinese (Traditional)

  109. Language : Chinese

  110. Default : No

  111. Forced : No


  112. Text #5

  113. ID : 7

  114. Format : UTF-8

  115. Codec ID : S_TEXT/UTF8

  116. Codec ID/Info : UTF-8 Plain Text

  117. Duration : 1 h 25 min

  118. Bit rate : 52 b/s

  119. Count of elements : 794

  120. Stream size : 32.8 KiB (0%)

  121. Title : English

  122. Language : English

  123. Default : No

  124. Forced : No


  125. Menu

  126. 00:00:00.000 : en:Chapter 01

  127. 00:07:18.625 : en:Chapter 02

  128. 00:13:01.167 : en:Chapter 03

  129. 00:22:13.000 : en:Chapter 04

  130. 00:28:48.667 : en:Chapter 05

  131. 00:36:01.417 : en:Chapter 06

  132. 00:42:06.042 : en:Chapter 07

  133. 00:48:35.333 : en:Chapter 08

  134. 00:59:25.458 : en:Chapter 09

  135. 01:06:41.917 : en:Chapter 10

  136. 01:13:20.708 : en:Chapter 11

  137. 01:21:41.625 : en:Chapter 12

  138. 01:31:00.875 : en:Chapter 13


文件下载


除非特别注明,本文『找到你了[简繁字幕].I.See.You.2019.1080p.BluRay.x265.10bit.DD.5.1.MNHD 5.51GB』来源于互联网机器人自动抓取,非本站原创。 浮游电影网不对本文拥有版权,如有侵犯,请联系邮箱:fuyouu#yandex.com[#换成@]投诉。我们会在15个工作日内删除。 但烦请转载时请标明出处:“本文转载于『浮游电影网』,原文地址:https://www.fuyouu.com/14381.html

评论吧骚年!

发表你的见解   

昵称*

E-mail*(建议输入,以便收到博主回复的提示邮件)

验证码*

您可以使用eMule或eMule Mod(Windows)、aMule(Win、Linux、Mac)等软件下载eD2k链接。。
eMule收藏集(.emulecollection)文件是您选中的所有链接的列表文件。eMule可以直接下载它们。
按住SHIFT键选择可以选中多个选择框。
可用文件名和大小选择器来选择文件。
文件名选择器帮您根据文件名称或后缀来选择文件。不分大小写。
符号使用:
和:空格( )、+
不包含:-
或:|
转义:一对英文引号("");
匹配开头:^
匹配结尾:$
例如:
选中所有名称中包含有“eMule”或“0.49c”字眼,但不包含有“exe”字眼的:emule|0.49c -exe
选中所有名称的开头是“eMule”,结尾是“0.49c”的:^emule 0.49c$
选中所有名称中带有“eMule 0.49c”的(必须是“eMule 0.49c”,中间没有别的字符,不能是“eMule fake 0.49c”),需要转义:"emule 0.49c"
大小选择器帮您根据文件大小选择文件。