当前位置: 首页 >> 欧美电影 >> 霓裳丛林[中文字幕].The.Garment.Jungle.1957.1080p.BluRay.x265.10bit.FLAC 4.57GB >> 正文

霓裳丛林[中文字幕].The.Garment.Jungle.1957.1080p.BluRay.x265.10bit.FLAC 4.57GB

2021年09月15日 10:05:50     电影发布:来源于网络     电影分类:欧美电影     评论(0)    

霓裳丛林[中文字幕].The.Garment.Jungle.1957.1080p.BluRay.x265.10bit.FLAC 4.57GB 黑色电影 剧情片 欧美电影  第1张

◎译 名 霓裳丛林 / 黑社会风云

◎片 名 The Garment Jungle

◎年 代 1957

◎产 地 美国

◎类 别 剧情 / 黑色电影

◎语 言 英语

◎上映日期 1957-04-25

◎IMDb链接 https://www.imdb.com/title/tt0050424/

◎豆瓣链接 https://movie.douban.com/subject/3219018/

◎片 长 88 分钟

◎导 演 文森特·舒曼 Vincent Sherman (id:1012595)

罗伯特·奥尔德里奇 Robert Aldrich (id:1025340)

◎编 剧 哈里·克莱纳 Harry Kleiner (id:1050909)

◎演 员 李·科布 Lee J. Cobb (id:1036551)

凯文·马修斯 Kerwin Mathews (id:1014329)

罗伯特·劳吉亚 Robert Loggia (id:1013914)

吉娅·斯卡拉 Gia Scala (id:1032459)

理查德·布恩 Richard Boone (id:1019098)

西莉亚·罗斯基 Celia Lovsky (id:1125161)

Joe Ploski Joe Ploski (id:1128189)

格洛里亚·帕尔 Gloria Pall (id:1133608)

Paul Power Paul Power (id:1136851)

哈罗德·米勒 Harold Miller (id:1123300)

Jon Shepodd Jon Shepodd (id:1141514)

希德·梅尔顿 Sid Melton (id:1118431)

凯茜·马洛 Kathy Marlowe (id:1116507)

法兰克·马洛 Frank Marlowe (id:1124276)

Archie Savage Archie Savage (id:1143870)

查尔兹·歇洛克 Charles Sherlock (id:1147757)

George Robotham George Robotham (id:1138092)

伊芙·布伦特 Eve Brent (id:1279260)

William Woodson William Woodson (id:1167975)

亚当·威廉姆斯 Adam Williams (id:1163832)

哈罗德·J.斯通 Harold J. Stone (id:1159814)

Dale Van Sickel Dale Van Sickel (id:1159439)

Hal Taggart Hal Taggart (id:1152468)

科兹摩萨尔多 Cosmo Sardo (id:1147960)

Irene Seidner Irene Seidner (id:1147810)

Donald Kirke Donald Kirke (id:1114395)

肯纳G.肯普 Kenner G. Kemp (id:1104065)

Joe Lanza Joe Lanza (id:1103889)

约瑟夫·怀斯曼 Joseph Wiseman (id:1048253)

乔安娜·巴恩斯 Joanna Barnes (id:1041221)

裘德·泰勒 Jud Taylor (id:1032820)

迪克·克罗基特 Dick Crockett (id:1032809)

韦斯利·阿迪 Wesley Addy (id:1025421)

Betsy Jones Betsy Jones (id:1001011)

Bob Hopkins Bob Hopkins (id:1048506)

Suzanne Alexander Suzanne Alexander (id:1061029)

Joan Granville Joan Granville (id:1099707)

玛丽莲·哈洛特 Marilyn Hanold (id:1096125)

Kenneth Gibson Kenneth Gibson (id:1096091)

Valerie French Valerie French (id:1089885)

Madelyn Darrow Madelyn Darrow (id:1086865)

罗伯特·艾伦斯坦 Robert Ellenstein (id:1081749)

Lillian Culver Lillian Culver (id:1070452)

Shirley Buchanan Shirley Buchanan (id:1067882)

Bonnie Bolding Bonnie Bolding (id:1067135)

威利斯·布鲁辛 Willis Bouchey (id:1066488)

哈里·克莱纳 Harry Kleiner (id:1050909)

利斯·史蒂文斯 Leith Stevens (id:1051274)

约瑟夫·F·比罗克 Joseph F. Biroc (id:1008200)

威廉·A·里昂 William A. Lyon (id:1008772)

弗兰克·塔特尔 Frank Tuttle (id:1150429)

罗伯特·彼得森 Robert Peterson (id:1294376)

威廉·基尔南 William Kiernan (id:1107389)

让·路易 Jean Louis (id:1028414)

◎标 签 美国 / 黑色电影 / 罗伯特·奥尔德里奇 / 美国电影 / 文森特·舒曼 / 剧情 / 1957 / 1950s

◎简 介

A story about the struggle of the International Ladys Garment Worker Union (ILGWU) to unionize a New York sweat shop, Roxton Fashions, in the Garment District. Lee J. Cobb plays Walter Mitchell the owner of a company that is determined to keep the union out of his shop. His partner does not agree, and only wants the workers to have a living wage. He dies in an accident. Kerwin ...

  1. ##### MediaInfo ######

  2. General

  3. Unique ID : 97765247102900002108969552605351874787 (0x498CE6D5428EF021483664EFB87D90E3)

  4. Complete name : The.Garment.Jungle.1957.1080p.BluRay.x265.10bit.FLAC-10017@BBQDDQ.COM.mkv

  5. Format : Matroska

  6. Format version : Version 4

  7. File size : 4.57 GiB

  8. Duration : 1 h 27 min

  9. Overall bit rate mode : Variable

  10. Overall bit rate : 7 446 kb/s

  11. Encoded date : UTC 2021-09-13 04:20:48

  12. Writing application : mkvmerge v61.0.0 ('So') 64-bit

  13. Writing library : libebml v1.4.2 + libmatroska v1.6.4


  14. Video

  15. ID : 1

  16. Format : HEVC

  17. Format/Info : High Efficiency Video Coding

  18. Format profile : Main 10@L5@Main

  19. Codec ID : V_MPEGH/ISO/HEVC

  20. Duration : 1 h 27 min

  21. Bit rate : 6 668 kb/s

  22. Width : 1 920 pixels

  23. Height : 1 040 pixels

  24. Display aspect ratio : 1.85:1

  25. Frame rate mode : Constant

  26. Frame rate : 23.976 (24000/1001/53354) FPS

  27. Color space : YUV

  28. Chroma subsampling : 4:2:0

  29. Bit depth : 10 bits

  30. Bits/(Pixel*Frame) : 0.139

  31. Stream size : 4.09 GiB (90%)

  32. Writing library : x265 3.5+2-g2b25c9ba0+45:[Windows][GCC 10.2.0][64 bit] Yuuki 10bit+8bit+12bit

  33. Encoding settings : rc=crf / crf=23.0000 / qcomp=0.60 / qpstep=4 / stats-write=0 / stats-read=0 / no-lossless / no-cu-lossless / aq-mode=3 / aq-strength=0.90 / cbqpoffs=0 / crqpoffs=0 / ipratio=1.40 / pbratio=1.30 / psy-rd=2.00 / psy-rdoq=0.00 / deblock=0:0 / ref=6 / limit-refs=1 / no-limit-modes / bframes=8 / b-adapt=2 / bframe-bias=0 / b-pyramid / b-intra / weightp / weightb / min-keyint=24 / max-keyint=240 / rc-lookahead=24 / gop-lookahead=0 / NTMzNTQ=uuDQuD2mJt9fsCf / scenecut=40 / hist-scenecut=0 / radl=0 / max-cu-size=64 / min-cu-size=8 / me=3 / subme=7 / merange=48 / rdoq-level=0 / rd=4 / rdpenalty=0 / dynamic-rd=0.00 / no-rd-refine / ----- / cutree / sao / no-rect / no-amp / no-open-gop / wpp / no-pmode / no-pme / no-psnr / no-ssim / nr-intra=0 / nr-inter=0 / no-constrained-intra / no-strong-intra-smoothing / max-tu-size=32 / tu-inter-depth=1 / tu-intra-depth=1 / limit-tu=0 / qg-size=32 / qpmax=69 / qpmin=0 / ----- / cpuid=533541111039 / frame-threads=4 / numa-pools=+ / log-level=2 / input-csp=1 / input-res=1920x1040 / interlace=0 / level-idc=0 / high-tier=1 / uhd-bd=0 / no-allow-non-conformance / no-repeat-headers / aud / no-hrd / info / hash=0 / no-temporal-layers / lookahead-slices=0 / no-splice / no-intra-refresh / no-ssim-rd / signhide / no-tskip / max-merge=3 / temporal-mvp / no-frame-dup / no-hme / no-analyze-src-pics / no-sao-non-deblock / selective-sao=4 / early-skip / rskip / no-fast-intra / no-tskip-fast / no-splitrd-skip / zone-count=0 / no-strict-cbr / no-rc-grain / no-const-vbv / sar=0 / overscan=0 / videoformat=5 / range=0 / colorprim=2 / transfer=2 / colormatrix=2 / chromaloc=0 / display-window=0 / cll=0,0 / min-luma=0 / max-luma=1023 / log2-max-poc-lsb=8 / vui-timing-info / vui-hrd-info / slices=1 / no-opt-qp-pps / no-opt-ref-list-length-pps / no-multi-pass-opt-rps / scenecut-bias=0.05 / hist-threshold=0.03 / no-opt-cu-delta-qp / no-aq-motion / no-hdr10 / no-hdr10-opt / no-dhdr10-opt / no-idr-recovery-sei / analysis-reuse-level=0 / analysis-save-reuse-level=0 / analysis-load-reuse-level=0 / scale-factor=0 / refine-intra=0 / refine-inter=0 / refine-mv=1 / refine-ctu-distortion=0 / no-limit-sao / ctu-info=0 / no-lowpass-dct / refine-analysis-type=0 / copy-pic=1 / max-ausize-factor=1.0 / no-dynamic-refine / no-single-sei / no-hevc-aq / no-svt / no-field / qp-adaptation-range=1.00 / scenecut-aware-qp=0conformance-window-offsets / right=0 / bottom=0 / NTMzNTQ= / decoder-max-rate=0 / no-vbv-live-multi-pass

  34. Default : Yes

  35. Forced : No


  36. Audio

  37. ID : 2

  38. Format : FLAC

  39. Format/Info : Free Lossless Audio Codec

  40. Codec ID : A_FLAC

  41. Duration : 1 h 27 min

  42. Bit rate mode : Variable

  43. Bit rate : 683 kb/s

  44. Channel(s) : 1 channel

  45. Channel layout : C

  46. Sampling rate : 48.0 kHz

  47. Frame rate : 11.719 FPS (4096 SPF)

  48. Bit depth : 24 bits

  49. Compression mode : Lossless

  50. Stream size : 429 MiB (9%)

  51. Writing library : libFLAC 1.2.1 (UTC 2007-09-17)

  52. Language : English

  53. Default : Yes

  54. Forced : No


  55. Text #1

  56. ID : 3

  57. ID in the original source medium : 4609 (0x1201)

  58. Format : PGS

  59. Muxing mode : zlib

  60. Codec ID : S_HDMV/PGS

  61. Codec ID/Info : Picture based subtitle format used on BDs/HD-DVDs

  62. Duration : 1 h 27 min

  63. Bit rate : 52.1 kb/s

  64. Count of elements : 2186

  65. Stream size : 32.6 MiB (1%)

  66. Title : chs&eng

  67. Language : Chinese

  68. Default : Yes

  69. Forced : No

  70. Original source medium : Blu-ray


  71. Text #2

  72. ID : 4

  73. ID in the original source medium : 4610 (0x1202)

  74. Format : PGS

  75. Muxing mode : zlib

  76. Codec ID : S_HDMV/PGS

  77. Codec ID/Info : Picture based subtitle format used on BDs/HD-DVDs

  78. Duration : 1 h 27 min

  79. Bit rate : 52.5 kb/s

  80. Count of elements : 2186

  81. Stream size : 32.8 MiB (1%)

  82. Title : cht&eng

  83. Language : Chinese

  84. Default : No

  85. Forced : No

  86. Original source medium : Blu-ray


  87. Text #3

  88. ID : 5

  89. ID in the original source medium : 4611 (0x1203)

  90. Format : PGS

  91. Muxing mode : zlib

  92. Codec ID : S_HDMV/PGS

  93. Codec ID/Info : Picture based subtitle format used on BDs/HD-DVDs

  94. Duration : 1 h 27 min

  95. Bit rate : 30.8 kb/s

  96. Count of elements : 2186

  97. Stream size : 19.3 MiB (0%)

  98. Title : chs

  99. Language : Chinese

  100. Default : No

  101. Forced : No

  102. Original source medium : Blu-ray


  103. Text #4

  104. ID : 6

  105. ID in the original source medium : 4612 (0x1204)

  106. Format : PGS

  107. Muxing mode : zlib

  108. Codec ID : S_HDMV/PGS

  109. Codec ID/Info : Picture based subtitle format used on BDs/HD-DVDs

  110. Duration : 1 h 27 min

  111. Bit rate : 31.2 kb/s

  112. Count of elements : 2186

  113. Stream size : 19.5 MiB (0%)

  114. Title : cht

  115. Language : Chinese

  116. Default : No

  117. Forced : No

  118. Original source medium : Blu-ray


  119. Text #5

  120. ID : 7

  121. ID in the original source medium : 4608 (0x1200)

  122. Format : PGS

  123. Muxing mode : zlib

  124. Codec ID : S_HDMV/PGS

  125. Codec ID/Info : Picture based subtitle format used on BDs/HD-DVDs

  126. Duration : 1 h 27 min

  127. Bit rate : 43.2 kb/s

  128. Count of elements : 2378

  129. Stream size : 27.0 MiB (1%)

  130. Title : eng

  131. Language : English

  132. Default : No

  133. Forced : No

  134. Original source medium : Blu-ray


  135. Menu

  136. 00:00:00.000 : 第 01 章

  137. 00:10:24.915 : 第 02 章

  138. 00:18:43.372 : 第 03 章

  139. 00:26:05.522 : 第 04 章

  140. 00:36:15.256 : 第 05 章

  141. 00:42:57.741 : 第 06 章

  142. 00:52:43.952 : 第 07 章

  143. 00:59:38.241 : 第 08 章

  144. 01:11:13.727 : 第 09 章

  145. 01:18:21.238 : 第 10 章


文件下载


除非特别注明,本文『霓裳丛林[中文字幕].The.Garment.Jungle.1957.1080p.BluRay.x265.10bit.FLAC 4.57GB』来源于互联网机器人自动抓取,非本站原创。 浮游电影网不对本文拥有版权,如有侵犯,请联系邮箱:fuyouu#yandex.com[#换成@]投诉。我们会在15个工作日内删除。 但烦请转载时请标明出处:“本文转载于『浮游电影网』,原文地址:https://www.fuyouu.com/14378.html

评论吧骚年!

发表你的见解   

昵称*

E-mail*(建议输入,以便收到博主回复的提示邮件)

验证码*

您可以使用eMule或eMule Mod(Windows)、aMule(Win、Linux、Mac)等软件下载eD2k链接。。
eMule收藏集(.emulecollection)文件是您选中的所有链接的列表文件。eMule可以直接下载它们。
按住SHIFT键选择可以选中多个选择框。
可用文件名和大小选择器来选择文件。
文件名选择器帮您根据文件名称或后缀来选择文件。不分大小写。
符号使用:
和:空格( )、+
不包含:-
或:|
转义:一对英文引号("");
匹配开头:^
匹配结尾:$
例如:
选中所有名称中包含有“eMule”或“0.49c”字眼,但不包含有“exe”字眼的:emule|0.49c -exe
选中所有名称的开头是“eMule”,结尾是“0.49c”的:^emule 0.49c$
选中所有名称中带有“eMule 0.49c”的(必须是“eMule 0.49c”,中间没有别的字符,不能是“eMule fake 0.49c”),需要转义:"emule 0.49c"
大小选择器帮您根据文件大小选择文件。