当前位置: 首页 >> 日韩电影 >> 始动[中文字幕].Start-Up.2019.1080p.BluRay.x265.10bit.DTS 5.75GB >> 正文

始动[中文字幕].Start-Up.2019.1080p.BluRay.x265.10bit.DTS 5.75GB

2021年09月15日 10:02:40     电影发布:来源于网络     电影分类:日韩电影     评论(0)    

始动[中文字幕].Start Up.2019.1080p.BluRay.x265.10bit.DTS 5.75GB 喜剧片 剧情片 日韩电影  第1张

◎译 名 始动 / 启动 / 青春催落去(台) / Start-up

◎片 名 ??

◎年 代 2019

◎产 地 韩国

◎类 别 剧情 / 喜剧

◎语 言 韩语

◎上映日期 2019-12-18(韩国)

◎IMDb链接 https://www.imdb.com/title/tt11454170/

◎豆瓣评分 6.6/10 (7107人评价)

◎豆瓣链接 https://movie.douban.com/subject/34809353/

◎片 长 101分钟

◎导 演 崔正烈 Jeong-Yeol Choi (id:1357587)

◎编 剧 崔正烈 Jeong-Yeol Choi (id:1357587)

赵锦山 Geum-san Jo (id:1378883)

◎演 员 马东锡 Tong-Seok Ma (id:1322205)

朴正民 Jeong-min Park (id:1335493)

丁海寅 Hae-In Jung (id:1342508)

廉晶雅 Jung-ah Yum (id:1023421)

金敏载 Kim Min-jae (id:1381255)

方恩晶 Eun-jung Bang (id:1442970)

乔汉俊 Han-joon Jo (id:1448882)

金大坤 Kim Dae Gon (id:1453962)

郑义旭 Eui-wook Jung (id:1456042)

林成宰 Sungjae Im (id:1444305)

白珠熙 JuHee Baek (id:1438387)

李海云 Hae-woon Lee (id:1424195)

洪仁 Hong In (id:1398063)

郭秀贞 Soo-Jeong Kwak (id:1429922)

崔成恩 Sung eun Choi (id:1430875)

许俊硕 Jun-seok Heo (id:1348081)

吴在世 Jae-se Oh (id:1437980)

朴成日 Park Seong-il (id:1373662)

柳昇完 Seung-wan Ryoo (id:1138335)

权泰浩 Tae-ho Kwon (id:1456752)

◎标 签 马东锡 / 喜剧 / 韩国 / 韩国电影 / 温情 / 电影 / 2019 / 丁海寅

◎简 介

电影改编自同名人气漫画,讲述的是离家出走的青少年的成长故事。

离家出走的叛逆儿泽日(朴正民饰)与盲目踏入社会并满腔热血的尚弼(丁海寅饰),在遇见长风饭馆的厨师长猛男哥(马东锡饰)后,让自己明白了什么是世间愉快与开心的故事。

  1. ##### MediaInfo ######

  2. General

  3. Unique ID : 130132220726029238289223588401121465682 (0x61E68DD70BB2AB4AEB97377876621552)

  4. Complete name : Start-Up.2019.1080p.BluRay.x265.10bit.DTS-10017@BBQDDQ.COM.mkv

  5. Format : Matroska

  6. Format version : Version 4

  7. File size : 5.75 GiB

  8. Duration : 1 h 41 min

  9. Overall bit rate : 8 082 kb/s

  10. Movie name : Start-Up 2019

  11. Encoded date : UTC 2021-09-12 02:38:25

  12. Writing application : mkvmerge v61.0.0 ('So') 64-bit

  13. Writing library : libebml v1.4.2 + libmatroska v1.6.4

  14. Cover : Yes

  15. Attachments : cover.jpg


  16. Video

  17. ID : 1

  18. Format : HEVC

  19. Format/Info : High Efficiency Video Coding

  20. Format profile : Main 10@L5@Main

  21. Codec ID : V_MPEGH/ISO/HEVC

  22. Duration : 1 h 41 min

  23. Bit rate : 6 526 kb/s

  24. Width : 1 920 pixels

  25. Height : 1 036 pixels

  26. Display aspect ratio : 1.85:1

  27. Frame rate mode : Constant

  28. Frame rate : 23.976 (24000/1001/53354) FPS

  29. Color space : YUV

  30. Chroma subsampling : 4:2:0

  31. Bit depth : 10 bits

  32. Bits/(Pixel*Frame) : 0.137

  33. Stream size : 4.65 GiB (81%)

  34. Writing library : x265 3.5+2-g2b25c9ba0+45:[Windows][GCC 10.2.0][64 bit] Yuuki 10bit+8bit+12bit

  35. Encoding settings : rc=crf / crf=16.5000 / qcomp=0.60 / qpstep=4 / stats-write=0 / stats-read=0 / no-lossless / no-cu-lossless / aq-mode=3 / aq-strength=0.90 / cbqpoffs=0 / crqpoffs=0 / ipratio=1.40 / pbratio=1.30 / psy-rd=2.00 / psy-rdoq=0.00 / deblock=0:0 / ref=6 / limit-refs=1 / no-limit-modes / bframes=8 / b-adapt=2 / bframe-bias=0 / b-pyramid / b-intra / weightp / weightb / min-keyint=24 / max-keyint=240 / rc-lookahead=24 / gop-lookahead=0 / NTMzNTQ=uuDQuD2mJt9fsCf / scenecut=40 / hist-scenecut=0 / radl=0 / max-cu-size=64 / min-cu-size=8 / me=3 / subme=7 / merange=48 / rdoq-level=0 / rd=4 / rdpenalty=0 / dynamic-rd=0.00 / no-rd-refine / ----- / cutree / sao / no-rect / no-amp / no-open-gop / wpp / no-pmode / no-pme / no-psnr / no-ssim / nr-intra=0 / nr-inter=0 / no-constrained-intra / no-strong-intra-smoothing / max-tu-size=32 / tu-inter-depth=1 / tu-intra-depth=1 / limit-tu=0 / qg-size=32 / qpmax=69 / qpmin=0 / ----- / cpuid=533541111039 / frame-threads=4 / numa-pools=+ / log-level=2 / input-csp=1 / input-res=1920x1036 / interlace=0 / level-idc=0 / high-tier=1 / uhd-bd=0 / no-allow-non-conformance / repeat-headers / aud / no-hrd / info / hash=0 / no-temporal-layers / lookahead-slices=0 / no-splice / no-intra-refresh / no-ssim-rd / signhide / no-tskip / max-merge=3 / temporal-mvp / no-frame-dup / no-hme / no-analyze-src-pics / no-sao-non-deblock / selective-sao=4 / early-skip / rskip / no-fast-intra / no-tskip-fast / no-splitrd-skip / zone-count=0 / no-strict-cbr / no-rc-grain / no-const-vbv / sar=0 / overscan=0 / videoformat=5 / range=0 / colorprim=2 / transfer=2 / colormatrix=2 / chromaloc=0 / display-window=0 / cll=0,0 / min-luma=0 / max-luma=1023 / log2-max-poc-lsb=8 / vui-timing-info / vui-hrd-info / slices=1 / no-opt-qp-pps / no-opt-ref-list-length-pps / no-multi-pass-opt-rps / scenecut-bias=0.05 / hist-threshold=0.03 / no-opt-cu-delta-qp / no-aq-motion / no-hdr10 / no-hdr10-opt / no-dhdr10-opt / no-idr-recovery-sei / analysis-reuse-level=0 / analysis-save-reuse-level=0 / analysis-load-reuse-level=0 / scale-factor=0 / refine-intra=0 / refine-inter=0 / refine-mv=1 / refine-ctu-distortion=0 / no-limit-sao / ctu-info=0 / no-lowpass-dct / refine-analysis-type=0 / copy-pic=1 / max-ausize-factor=1.0 / no-dynamic-refine / no-single-sei / no-hevc-aq / no-svt / no-field / qp-adaptation-range=1.00 / scenecut-aware-qp=0conformance-window-offsets / right=0 / bottom=0 / NTMzNTQ= / decoder-max-rate=0 / no-vbv-live-multi-pass

  36. Default : Yes

  37. Forced : No


  38. Audio

  39. ID : 2

  40. ID in the original source medium : 4352 (0x1100)

  41. Format : DTS

  42. Format/Info : Digital Theater Systems

  43. Codec ID : A_DTS

  44. Duration : 1 h 41 min

  45. Bit rate mode : Constant

  46. Bit rate : 1 509 kb/s

  47. Channel(s) : 6 channels

  48. Channel layout : C L R Ls Rs LFE

  49. Sampling rate : 48.0 kHz

  50. Frame rate : 93.750 FPS (512 SPF)

  51. Bit depth : 24 bits

  52. Compression mode : Lossy

  53. Stream size : 1.07 GiB (19%)

  54. Language : Korean

  55. Default : Yes

  56. Forced : No

  57. Original source medium : Blu-ray


  58. Text #1

  59. ID : 3

  60. ID in the original source medium : 4610 (0x1202)

  61. Format : PGS

  62. Muxing mode : zlib

  63. Codec ID : S_HDMV/PGS

  64. Codec ID/Info : Picture based subtitle format used on BDs/HD-DVDs

  65. Duration : 1 h 36 min

  66. Bit rate : 24.3 kb/s

  67. Count of elements : 2782

  68. Stream size : 16.8 MiB (0%)

  69. Title : chs

  70. Language : Chinese

  71. Default : Yes

  72. Forced : No

  73. Original source medium : Blu-ray


  74. Text #2

  75. ID : 4

  76. ID in the original source medium : 4611 (0x1203)

  77. Format : PGS

  78. Muxing mode : zlib

  79. Codec ID : S_HDMV/PGS

  80. Codec ID/Info : Picture based subtitle format used on BDs/HD-DVDs

  81. Duration : 1 h 36 min

  82. Bit rate : 24.7 kb/s

  83. Count of elements : 2782

  84. Stream size : 17.1 MiB (0%)

  85. Title : cht

  86. Language : Chinese

  87. Default : No

  88. Forced : No

  89. Original source medium : Blu-ray


  90. Text #3

  91. ID : 5

  92. ID in the original source medium : 4608 (0x1200)

  93. Format : PGS

  94. Muxing mode : zlib

  95. Codec ID : S_HDMV/PGS

  96. Codec ID/Info : Picture based subtitle format used on BDs/HD-DVDs

  97. Duration : 1 h 36 min

  98. Bit rate : 30.3 kb/s

  99. Count of elements : 2529

  100. Stream size : 21.0 MiB (0%)

  101. Language : Korean

  102. Default : No

  103. Forced : No

  104. Original source medium : Blu-ray


  105. Text #4

  106. ID : 6

  107. ID in the original source medium : 4609 (0x1201)

  108. Format : PGS

  109. Muxing mode : zlib

  110. Codec ID : S_HDMV/PGS

  111. Codec ID/Info : Picture based subtitle format used on BDs/HD-DVDs

  112. Duration : 1 h 38 min

  113. Bit rate : 27.5 kb/s

  114. Count of elements : 2631

  115. Stream size : 19.3 MiB (0%)

  116. Language : English

  117. Default : No

  118. Forced : No

  119. Original source medium : Blu-ray


  120. Menu

  121. 00:00:00.000 : Chapter 01

  122. 00:05:46.846 : Chapter 02

  123. 00:13:37.983 : Chapter 03

  124. 00:18:43.330 : Chapter 04

  125. 00:25:53.927 : Chapter 05

  126. 00:32:14.390 : Chapter 06

  127. 00:41:09.842 : Chapter 07

  128. 00:47:15.249 : Chapter 08

  129. 00:54:07.911 : Chapter 09

  130. 01:03:46.113 : Chapter 10

  131. 01:12:32.639 : Chapter 11

  132. 01:19:11.913 : Chapter 12

  133. 01:32:47.019 : Chapter 13

  134. 01:37:32.263 : Chapter 14


文件下载


除非特别注明,本文『始动[中文字幕].Start-Up.2019.1080p.BluRay.x265.10bit.DTS 5.75GB』来源于互联网机器人自动抓取,非本站原创。 浮游电影网不对本文拥有版权,如有侵犯,请联系邮箱:fuyouu#yandex.com[#换成@]投诉。我们会在15个工作日内删除。 但烦请转载时请标明出处:“本文转载于『浮游电影网』,原文地址:https://www.fuyouu.com/14376.html

评论吧骚年!

发表你的见解   

昵称*

E-mail*(建议输入,以便收到博主回复的提示邮件)

验证码*

您可以使用eMule或eMule Mod(Windows)、aMule(Win、Linux、Mac)等软件下载eD2k链接。。
eMule收藏集(.emulecollection)文件是您选中的所有链接的列表文件。eMule可以直接下载它们。
按住SHIFT键选择可以选中多个选择框。
可用文件名和大小选择器来选择文件。
文件名选择器帮您根据文件名称或后缀来选择文件。不分大小写。
符号使用:
和:空格( )、+
不包含:-
或:|
转义:一对英文引号("");
匹配开头:^
匹配结尾:$
例如:
选中所有名称中包含有“eMule”或“0.49c”字眼,但不包含有“exe”字眼的:emule|0.49c -exe
选中所有名称的开头是“eMule”,结尾是“0.49c”的:^emule 0.49c$
选中所有名称中带有“eMule 0.49c”的(必须是“eMule 0.49c”,中间没有别的字符,不能是“eMule fake 0.49c”),需要转义:"emule 0.49c"
大小选择器帮您根据文件大小选择文件。