当前位置: 首页 >> 欧美电影 >> 驱逐[中文字幕].The.Banishing.2020.1080p.BluRay.x265.10bit.DTS 6.55GB >> 正文

驱逐[中文字幕].The.Banishing.2020.1080p.BluRay.x265.10bit.DTS 6.55GB

2021年09月15日 10:01:31     电影发布:来源于网络     电影分类:欧美电影     评论(0)    

驱逐[中文字幕].The.Banishing.2020.1080p.BluRay.x265.10bit.DTS 6.55GB 恐怖片 惊悚片 剧情片 欧美电影  第1张

◎译 名 驱逐 / 放逐 / 波丽莱多里鬼屋(台)

◎片 名 The Banishing

◎年 代 2020

◎产 地 英国

◎类 别 剧情 / 惊悚 / 恐怖

◎语 言 英语

◎上映日期 2020-10-17(锡切斯电影节) / 2021-03-26(英国)

◎IMDb链接 https://www.imdb.com/title/tt7329642/

◎豆瓣评分 4.6/10 (491人评价)

◎豆瓣链接 https://movie.douban.com/subject/30367866/

◎片 长 97分钟

◎导 演 克里斯托弗·史密斯 Christopher Smith (id:1274962)

◎编 剧 罗尼·汤普森 Ronnie Thompson (id:1332051)

雷·博格丹诺维奇 Ray Bogdanovich (id:1266110)

迪恩·莱恩斯 Dean Lines (id:1403196)

◎演 员 杰西卡·布朗·芬德利 Jessica Brown Findlay (id:1273698)

西恩·哈里斯 Sean Harris (id:1286119)

约翰·林奇 John Lynch (id:1054701)

杰森·索普 Jason Thorpe (id:1395236)

亚当·赫吉尔 Adam Hugill (id:1426851)

约翰·赫夫南 John Heffernan (id:1323264)

安雅·麦肯纳-布鲁斯 Anya McKenna-Bruce (id:1415424)

詹姆斯·斯旺顿 James Swanton (id:1442655)

柯基·法尔考 Cokey Falkow (id:1328504)

西姆斯·奥尼尔 Seamus O'Neill (id:1037605)

◎标 签 恐怖 / 惊悚 / 英国 / 恐怖片 / 2020 / 英国电影 / 剧情 / 杰西卡·布朗·芬德利

◎简 介

改编自1930年代英国真实事件,一位牧师莱纳斯(约翰·赫夫南 饰)被教会任命为代理牧师,他带着妻子玛丽安(杰西卡·布朗·芬德利 饰)与女儿小爱搬进一座神秘庄园。

但在他们入住这间屋子不久后,奇怪事情接二连三发生,除了在半夜会听见呢喃声,还会看见陌生的修道士身影,女儿小爱的行为也越来越陌生,随着被骚扰的次数越来越多,莱纳斯和玛丽安不得不寻求著名的捉鬼专家哈利(西恩·哈里斯 饰)帮忙。

他们必须一起揭开真相,找出这栋房子的超自然力量还有它可怕且惊人的过去……

  1. ##### MediaInfo ######

  2. General

  3. Unique ID : 270128215439449475049913948592359364014 (0xCB38CD48EAB40B6BFCCBD2C31C9055AE)

  4. Complete name : The.Banishing.2020.1080p.BluRay.x265.10bit.DTS-10017@BBQDDQ.COM.mkv

  5. Format : Matroska

  6. Format version : Version 4

  7. File size : 6.55 GiB

  8. Duration : 1 h 36 min

  9. Overall bit rate : 9 664 kb/s

  10. Movie name : The Banishing 2020

  11. Encoded date : UTC 2021-09-12 02:33:00

  12. Writing application : mkvmerge v61.0.0 ('So') 64-bit

  13. Writing library : libebml v1.4.2 + libmatroska v1.6.4

  14. Cover : Yes

  15. Attachments : cover.jpg


  16. Video

  17. ID : 1

  18. Format : HEVC

  19. Format/Info : High Efficiency Video Coding

  20. Format profile : Main 10@L5@Main

  21. Codec ID : V_MPEGH/ISO/HEVC

  22. Duration : 1 h 36 min

  23. Bit rate : 8 138 kb/s

  24. Width : 1 920 pixels

  25. Height : 1 036 pixels

  26. Display aspect ratio : 1.85:1

  27. Frame rate mode : Constant

  28. Frame rate : 23.976 (24000/1001/53354) FPS

  29. Color space : YUV

  30. Chroma subsampling : 4:2:0

  31. Bit depth : 10 bits

  32. Bits/(Pixel*Frame) : 0.171

  33. Stream size : 5.51 GiB (84%)

  34. Writing library : x265 3.5+2-g2b25c9ba0+45:[Windows][GCC 10.2.0][64 bit] Yuuki 10bit+8bit+12bit

  35. Encoding settings : rc=crf / crf=17.5000 / qcomp=0.60 / qpstep=4 / stats-write=0 / stats-read=0 / no-lossless / no-cu-lossless / aq-mode=3 / aq-strength=0.90 / cbqpoffs=0 / crqpoffs=0 / ipratio=1.40 / pbratio=1.30 / psy-rd=2.00 / psy-rdoq=0.00 / deblock=0:0 / ref=6 / limit-refs=1 / no-limit-modes / bframes=8 / b-adapt=2 / bframe-bias=0 / b-pyramid / b-intra / weightp / weightb / min-keyint=24 / max-keyint=240 / rc-lookahead=24 / gop-lookahead=0 / NTMzNTQ=uuDQuD2mJt9fsCf / scenecut=40 / hist-scenecut=0 / radl=0 / max-cu-size=64 / min-cu-size=8 / me=3 / subme=7 / merange=48 / rdoq-level=0 / rd=4 / rdpenalty=0 / dynamic-rd=0.00 / no-rd-refine / ----- / cutree / sao / no-rect / no-amp / no-open-gop / wpp / no-pmode / no-pme / no-psnr / no-ssim / nr-intra=0 / nr-inter=0 / no-constrained-intra / no-strong-intra-smoothing / max-tu-size=32 / tu-inter-depth=1 / tu-intra-depth=1 / limit-tu=0 / qg-size=32 / qpmax=69 / qpmin=0 / ----- / cpuid=533541111039 / frame-threads=4 / numa-pools=+ / log-level=2 / input-csp=1 / input-res=1920x1036 / interlace=0 / level-idc=0 / high-tier=1 / uhd-bd=0 / no-allow-non-conformance / repeat-headers / aud / no-hrd / info / hash=0 / no-temporal-layers / lookahead-slices=0 / no-splice / no-intra-refresh / no-ssim-rd / signhide / no-tskip / max-merge=3 / temporal-mvp / no-frame-dup / no-hme / no-analyze-src-pics / no-sao-non-deblock / selective-sao=4 / early-skip / rskip / no-fast-intra / no-tskip-fast / no-splitrd-skip / zone-count=0 / no-strict-cbr / no-rc-grain / no-const-vbv / sar=0 / overscan=0 / videoformat=5 / range=0 / colorprim=2 / transfer=2 / colormatrix=2 / chromaloc=0 / display-window=0 / cll=0,0 / min-luma=0 / max-luma=1023 / log2-max-poc-lsb=8 / vui-timing-info / vui-hrd-info / slices=1 / no-opt-qp-pps / no-opt-ref-list-length-pps / no-multi-pass-opt-rps / scenecut-bias=0.05 / hist-threshold=0.03 / no-opt-cu-delta-qp / no-aq-motion / no-hdr10 / no-hdr10-opt / no-dhdr10-opt / no-idr-recovery-sei / analysis-reuse-level=0 / analysis-save-reuse-level=0 / analysis-load-reuse-level=0 / scale-factor=0 / refine-intra=0 / refine-inter=0 / refine-mv=1 / refine-ctu-distortion=0 / no-limit-sao / ctu-info=0 / no-lowpass-dct / refine-analysis-type=0 / copy-pic=1 / max-ausize-factor=1.0 / no-dynamic-refine / no-single-sei / no-hevc-aq / no-svt / no-field / qp-adaptation-range=1.00 / scenecut-aware-qp=0conformance-window-offsets / right=0 / bottom=0 / NTMzNTQ= / decoder-max-rate=0 / no-vbv-live-multi-pass

  36. Default : Yes

  37. Forced : No


  38. Audio

  39. ID : 2

  40. ID in the original source medium : 4353 (0x1101)

  41. Format : DTS

  42. Format/Info : Digital Theater Systems

  43. Codec ID : A_DTS

  44. Duration : 1 h 36 min

  45. Bit rate mode : Constant

  46. Bit rate : 1 509 kb/s

  47. Channel(s) : 6 channels

  48. Channel layout : C L R Ls Rs LFE

  49. Sampling rate : 48.0 kHz

  50. Frame rate : 93.750 FPS (512 SPF)

  51. Bit depth : 24 bits

  52. Compression mode : Lossy

  53. Stream size : 1.02 GiB (16%)

  54. Language : English

  55. Default : Yes

  56. Forced : No

  57. Original source medium : Blu-ray


  58. Text #1

  59. ID : 3

  60. ID in the original source medium : 4610 (0x1202)

  61. Format : PGS

  62. Muxing mode : zlib

  63. Codec ID : S_HDMV/PGS

  64. Codec ID/Info : Picture based subtitle format used on BDs/HD-DVDs

  65. Duration : 1 h 31 min

  66. Bit rate : 16.7 kb/s

  67. Count of elements : 1481

  68. Stream size : 10.9 MiB (0%)

  69. Title : chs

  70. Language : Chinese

  71. Default : No

  72. Forced : No

  73. Original source medium : Blu-ray


  74. Text #2

  75. ID : 4

  76. ID in the original source medium : 4611 (0x1203)

  77. Format : PGS

  78. Muxing mode : zlib

  79. Codec ID : S_HDMV/PGS

  80. Codec ID/Info : Picture based subtitle format used on BDs/HD-DVDs

  81. Duration : 1 h 31 min

  82. Bit rate : 16.9 kb/s

  83. Count of elements : 1481

  84. Stream size : 11.1 MiB (0%)

  85. Title : cht

  86. Language : Chinese

  87. Default : No

  88. Forced : No

  89. Original source medium : Blu-ray


  90. Menu

  91. 00:00:00.000 : Chapter 01

  92. 00:07:57.310 : Chapter 02

  93. 00:18:20.015 : Chapter 03

  94. 00:24:23.628 : Chapter 04

  95. 00:33:41.227 : Chapter 05

  96. 00:42:12.988 : Chapter 06

  97. 00:48:57.434 : Chapter 07

  98. 00:56:18.500 : Chapter 08

  99. 01:02:17.984 : Chapter 09

  100. 01:11:04.093 : Chapter 10

  101. 01:20:49.719 : Chapter 11

  102. 01:32:07.104 : Chapter 12


文件下载


除非特别注明,本文『驱逐[中文字幕].The.Banishing.2020.1080p.BluRay.x265.10bit.DTS 6.55GB』来源于互联网机器人自动抓取,非本站原创。 浮游电影网不对本文拥有版权,如有侵犯,请联系邮箱:fuyouu#yandex.com[#换成@]投诉。我们会在15个工作日内删除。 但烦请转载时请标明出处:“本文转载于『浮游电影网』,原文地址:https://www.fuyouu.com/14375.html

评论吧骚年!

发表你的见解   

昵称*

E-mail*(建议输入,以便收到博主回复的提示邮件)

验证码*

您可以使用eMule或eMule Mod(Windows)、aMule(Win、Linux、Mac)等软件下载eD2k链接。。
eMule收藏集(.emulecollection)文件是您选中的所有链接的列表文件。eMule可以直接下载它们。
按住SHIFT键选择可以选中多个选择框。
可用文件名和大小选择器来选择文件。
文件名选择器帮您根据文件名称或后缀来选择文件。不分大小写。
符号使用:
和:空格( )、+
不包含:-
或:|
转义:一对英文引号("");
匹配开头:^
匹配结尾:$
例如:
选中所有名称中包含有“eMule”或“0.49c”字眼,但不包含有“exe”字眼的:emule|0.49c -exe
选中所有名称的开头是“eMule”,结尾是“0.49c”的:^emule 0.49c$
选中所有名称中带有“eMule 0.49c”的(必须是“eMule 0.49c”,中间没有别的字符,不能是“eMule fake 0.49c”),需要转义:"emule 0.49c"
大小选择器帮您根据文件大小选择文件。