当前位置: 首页 >> 海外电影 >> 意大利式离婚[中文字幕].Divorce.Italian.Style.1961.1080p.BluRay.x265.10bit.FLAC.MNHD 7.58GB >> 正文

意大利式离婚[中文字幕].Divorce.Italian.Style.1961.1080p.BluRay.x265.10bit.FLAC.MNHD 7.58GB

2021年09月15日 09:54:20     电影发布:来源于网络     电影分类:海外电影     评论(0)    

意大利式离婚[中文字幕].Divorce.Italian.Style.1961.1080p.BluRay.x265.10bit.FLAC.MNHD 7.58GB 喜剧片 海外电影  第1张

◎译 名 意大利式离婚 / Divorce - Italian Style

◎片 名 Divorzio all'italiana

◎年 代 1961

◎产 地 意大利

◎类 别 喜剧

◎语 言 意大利语

◎上映日期 1961-12-20

◎IMDb链接 https://www.imdb.com/title/tt0055913/

◎豆瓣评分 8.4/10 (4112人评价)

◎豆瓣链接 https://movie.douban.com/subject/1303186/

◎片 长 105 分钟

◎导 演 皮亚托·杰米 Pietro Germi (id:1050398)

◎编 剧 恩尼奥·德·孔奇尼 Ennio De Concini (id:1037754)

皮亚托·杰米 Pietro Germi (id:1050398)

阿尔弗雷多·吉安内蒂 Alfredo Giannetti (id:1001924)

阿杰诺雷·因克罗奇 Agenore Incrocci (id:1012768)

◎演 员 马塞洛·马斯楚安尼 Marcello Mastroianni (id:1027899)

达尼埃拉·罗卡 Daniela Rocca (id:1138124)

斯特法尼娅·桑德雷利 Stefania Sandrelli (id:1019156)

马格丽塔·吉雷利 Margherita Girelli (id:1353908)

乔瓦尼·法西奥洛 Giovanni Fassiolo (id:1377987)

安杰拉·卡尔迪莱 Angela Cardile (id:1349922)

奥多阿尔多·斯帕达罗 Odoardo Spadaro (id:1157387)

彼得罗·托尔迪 Pietro Tordi (id:1155363)

弗兰切斯科·尼卡斯特罗 Francesco Nicastro (id:1377989)

雷纳托·平奇罗利 Renato Pinciroli (id:1132446)

伦佐·马里尼亚诺 Renzo Marignano (id:1121547)

兰多·布赞卡 Lando Buzzanca (id:1074395)

萨罗·阿尔奇迪亚科诺 Saro Arcidiacono (id:1057532)

莱奥波多·特里耶斯泰 Leopoldo Trieste (id:1048379)

劳拉·托米塞利 Laura Tomiselli (id:1377992)

Franco Cristaldi Franco Cristaldi (id:1028666)

Carlo Rustichelli Carlo Rustichelli (id:1054255)

卡洛·迪帕尔马 Carlo Di Palma (id:1003502)

Leonida Barboni Leonida Barboni (id:1039352)

Carlo Egidi Carlo Egidi (id:1049011)

伦佐·马里尼亚诺 Renzo Marignano (id:1121547)

◎标 签 意大利 / 喜剧 / 意大利电影 / 黑白 / 1961 / 1960s / 黑色幽默 / Marcello_Mastroianni

◎简 介

故事发生在风景如画的西西里岛,贵族塞法罗男爵(马塞洛·马斯楚安尼 Marcello Mastroianni 饰)是一位没落的贵族,和妻子纱利雅(Margherita Girelli 饰)之间沉闷的婚姻让他感到十分的厌倦,再加上其美艳不可方物的表妹安吉拉(斯蒂芬尼娅·桑德雷莉 Stefania Sandrelli 饰)的不断勾引,塞法罗决心要甩掉纱利雅。可是,离婚在当时的意大利系违法行为,因此,想要从婚姻里脱身,塞法罗男爵只得另觅他径。

经过塞法罗男爵的种种“努力”,他终于将妻子杀死却只被判了极短的刑期,在铁窗之后,塞法罗男爵幻想着今后幸福生活的种种,心中不禁充满了希冀与兴奋。然而,当自由来临之时,他的生活真的会如同想象的一般美好吗?

◎获奖情况 (共6项)

第35届奥斯卡金像奖 (1963)

最佳导演(提名)

└──皮亚托·杰米 (id:1050398)

最佳男主角(提名)

└──马塞洛·马斯楚安尼 (id:1027899)

最佳原创剧本

第15届戛纳电影节 (1962)

主竞赛单元 金棕榈奖(提名)

└──皮亚托·杰米 (id:1050398)

Best Comedy Award

└──皮亚托·杰米 (id:1050398)

第20届金球奖 (1963)

电影类 音乐/喜剧片最佳男主角

└──马塞洛·马斯楚安尼 (id:1027899)

  1. ##### MediaInfo ######

  2. General

  3. Unique ID : 144302786559068497345643582180090865142 (0x6C8FB4AD4B5F169BA62AD7F8E27A65F6)

  4. Complete name : Divorce.Italian.Style.1961.1080p.BluRay.x265.10bit.FLAC.MNHD-10018@BBQDDQ.COM.mkv

  5. Format : Matroska

  6. Format version : Version 4

  7. File size : 7.58 GiB

  8. Duration : 1 h 44 min

  9. Overall bit rate mode : Variable

  10. Overall bit rate : 10.4 Mb/s

  11. Movie name : Divorce Italian Style 1961 1080p BluRay x265 10bit FLAC MNHD-10018@BBQDDQ.COM

  12. Encoded date : UTC 2021-09-12 12:20:56

  13. Writing application : mkvmerge v56.1.0 ('My Friend') 64-bit

  14. Writing library : libebml v1.4.2 + libmatroska v1.6.4


  15. Video

  16. ID : 1

  17. Format : HEVC

  18. Format/Info : High Efficiency Video Coding

  19. Format profile : Main 10@L5.1@High

  20. Codec ID : V_MPEGH/ISO/HEVC

  21. Duration : 1 h 44 min

  22. Bit rate : 9 767 kb/s

  23. Width : 1 920 pixels

  24. Height : 1 040 pixels

  25. Display aspect ratio : 1.85:1

  26. Frame rate mode : Constant

  27. Frame rate : 24.000 FPS

  28. Color space : YUV

  29. Chroma subsampling : 4:2:0

  30. Bit depth : 10 bits

  31. Bits/(Pixel*Frame) : 0.204

  32. Stream size : 7.12 GiB (94%)

  33. Writing library : x265 3.5+9-bf91444e0:[Windows][MSVC 1928][64 bit] 10bit

  34. Encoding settings : cpuid=533541111039 / frame-threads=3 / numa-pools=12 / wpp / pmode / no-pme / no-psnr / no-ssim / log-level=2 / input-csp=1 / input-res=1920x1040 / interlace=0 / total-frames=150361 / level-idc=0 / high-tier=1 / uhd-bd=0 / ref=6 / no-allow-non-conformance / no-repeat-headers / annexb / no-aud / no-eob / no-eos / no-hrd / info / hash=0 / no-temporal-layers / no-open-gop / min-keyint=1 / keyint=250 / gop-lookahead=0 / bframes=8 / b-adapt=2 / b-pyramid / bframe-bias=0 / rc-lookahead=100 / lookahead-slices=0 / NTMzNTQ=uuDQuD2mJt9fsCf / scenecut=40 / hist-scenecut=0 / radl=0 / no-splice / no-intra-refresh / ctu=32 / min-cu-size=8 / no-rect / no-amp / max-tu-size=32 / tu-inter-depth=4 / tu-intra-depth=4 / limit-tu=0 / rdoq-level=2 / dynamic-rd=0.00 / no-ssim-rd / signhide / no-tskip / nr-intra=0 / nr-inter=0 / no-constrained-intra / strong-intra-smoothing / max-merge=5 / limit-refs=0 / no-limit-modes / me=3 / subme=5 / merange=57 / temporal-mvp / no-frame-dup / no-hme / weightp / weightb / no-analyze-src-pics / deblock=-3:-3 / no-sao / no-sao-non-deblock / rd=4 / selective-sao=0 / no-early-skip / no-rskip / no-fast-intra / no-tskip-fast / no-cu-lossless / b-intra / no-splitrd-skip / rdpenalty=0 / psy-rd=1.50 / psy-rdoq=1.00 / no-rd-refine / no-lossless / cbqpoffs=-2 / crqpoffs=-2 / rc=crf / crf=23.0 / qcomp=0.60 / qpstep=4 / stats-write=0 / stats-read=0 / vbv-maxrate=160000 / vbv-bufsize=160000 / vbv-init=0.9 / min-vbv-fullness=50.0 / max-vbv-fullness=80.0 / crf-max=0.0 / crf-min=0.0 / ipratio=1.30 / pbratio=1.20 / aq-mode=2 / aq-strength=1.00 / cutree / zone-count=0 / no-strict-cbr / qg-size=32 / no-rc-grain / qpmax=69 / qpmin=0 / no-const-vbv / sar=0 / overscan=0 / videoformat=5 / range=0 / colorprim=1 / transfer=1 / colormatrix=1 / chromaloc=0 / display-window=0 / cll=0,0 / min-luma=0 / max-luma=1023 / log2-max-poc-lsb=8 / vui-timing-info / vui-hrd-info / slices=1 / no-opt-qp-pps / no-opt-ref-list-length-pps / no-multi-pass-opt-rps / scenecut-bias=0.05 / hist-threshold=0.03 / no-opt-cu-delta-qp / no-aq-motion / no-hdr10 / no-hdr10-opt / no-dhdr10-opt / no-idr-recovery-sei / analysis-reuse-level=0 / analysis-save-reuse-level=0 / analysis-load-reuse-level=0 / scale-factor=0 / refine-intra=0 / refine-inter=0 / refine-mv=1 / refine-ctu-distortion=0 / no-limit-sao / ctu-info=0 / no-lowpass-dct / refine-analysis-type=0 / copy-pic=1 / max-ausize-factor=1.0 / no-dynamic-refine / no-single-sei / no-hevc-aq / no-svt / no-field / qp-adaptation-range=1.00 / scenecut-aware-qp=0conformance-window-offsets / right=0 / bottom=0 / NTMzNTQ= / decoder-max-rate=0 / no-vbv-live-multi-pass

  35. Default : Yes

  36. Forced : No

  37. Color range : Limited

  38. Color primaries : BT.709

  39. Transfer characteristics : BT.709

  40. Matrix coefficients : BT.709


  41. Audio

  42. ID : 2

  43. Format : FLAC

  44. Format/Info : Free Lossless Audio Codec

  45. Codec ID : A_FLAC

  46. Duration : 1 h 44 min

  47. Bit rate mode : Variable

  48. Bit rate : 618 kb/s

  49. Channel(s) : 2 channels

  50. Channel layout : L R

  51. Sampling rate : 48.0 kHz

  52. Frame rate : 11.719 FPS (4096 SPF)

  53. Bit depth : 24 bits

  54. Detected bit depth : 20 bits

  55. Compression mode : Lossless

  56. Stream size : 461 MiB (6%)

  57. Writing library : libFLAC 1.3.3 (UTC 2019-08-04)

  58. Language : Italian

  59. Default : Yes

  60. Forced : No


  61. Text #1

  62. ID : 3

  63. Format : UTF-8

  64. Codec ID : S_TEXT/UTF8

  65. Codec ID/Info : UTF-8 Plain Text

  66. Duration : 1 h 43 min

  67. Bit rate : 41 b/s

  68. Count of elements : 994

  69. Stream size : 31.2 KiB (0%)

  70. Title : CHS

  71. Language : Chinese

  72. Default : Yes

  73. Forced : No


  74. Text #2

  75. ID : 4

  76. Format : UTF-8

  77. Codec ID : S_TEXT/UTF8

  78. Codec ID/Info : UTF-8 Plain Text

  79. Duration : 1 h 43 min

  80. Bit rate : 48 b/s

  81. Count of elements : 994

  82. Stream size : 37.0 KiB (0%)

  83. Language : English

  84. Default : No

  85. Forced : No


  86. Menu

  87. 00:01:29.083 : Agramonte and family

  88. 00:06:33.964 : "We live to love"

  89. 00:11:31.999 : Murder on the mind

  90. 00:17:46.991 : By the seashore with Angela

  91. 00:22:42.163 : Don Ciccio Matara

  92. 00:24:28.557 : She has a lover

  93. 00:31:23.475 : Mariannina Terranova

  94. 00:37:09.129 : Don Ferdinando snaps

  95. 00:41:57.174 : Carmelo Patanè

  96. 00:47:20.017 : Reconciliation with Rosalia?

  97. 00:52:42.695 : Don Ferdinando goes to Catania

  98. 00:55:31.858 : A doomed affair

  99. 00:57:20.250 : Ferdinando's plan in motion

  100. 01:00:35.221 : An unexpected development

  101. 01:07:49.621 : Sisina, Carmelo, and Rosalia

  102. 01:16:27.769 : "La Dolce Vita" and adultery

  103. 01:22:37.234 : The cuckold

  104. 01:29:46.837 : A deadly discovery

  105. 01:33:24.752 : Serious provocation

  106. 01:36:13.251 : Honor restored

  107. 01:40:29.161 : Love is cruel


文件下载


除非特别注明,本文『意大利式离婚[中文字幕].Divorce.Italian.Style.1961.1080p.BluRay.x265.10bit.FLAC.MNHD 7.58GB』来源于互联网机器人自动抓取,非本站原创。 浮游电影网不对本文拥有版权,如有侵犯,请联系邮箱:fuyouu#yandex.com[#换成@]投诉。我们会在15个工作日内删除。 但烦请转载时请标明出处:“本文转载于『浮游电影网』,原文地址:https://www.fuyouu.com/14374.html

评论吧骚年!

发表你的见解   

昵称*

E-mail*(建议输入,以便收到博主回复的提示邮件)

验证码*

您可以使用eMule或eMule Mod(Windows)、aMule(Win、Linux、Mac)等软件下载eD2k链接。。
eMule收藏集(.emulecollection)文件是您选中的所有链接的列表文件。eMule可以直接下载它们。
按住SHIFT键选择可以选中多个选择框。
可用文件名和大小选择器来选择文件。
文件名选择器帮您根据文件名称或后缀来选择文件。不分大小写。
符号使用:
和:空格( )、+
不包含:-
或:|
转义:一对英文引号("");
匹配开头:^
匹配结尾:$
例如:
选中所有名称中包含有“eMule”或“0.49c”字眼,但不包含有“exe”字眼的:emule|0.49c -exe
选中所有名称的开头是“eMule”,结尾是“0.49c”的:^emule 0.49c$
选中所有名称中带有“eMule 0.49c”的(必须是“eMule 0.49c”,中间没有别的字符,不能是“eMule fake 0.49c”),需要转义:"emule 0.49c"
大小选择器帮您根据文件大小选择文件。