当前位置: 首页 >> 海外电影 >> 囚室211[中文字幕].Celda.211.2009.1080p.BluRay.DTS.x265-10bit 4.47GB >> 正文

囚室211[中文字幕].Celda.211.2009.1080p.BluRay.DTS.x265-10bit 4.47GB

2021年09月14日 15:31:03     电影发布:来源于网络     电影分类:海外电影     评论(0)    

囚室211[中文字幕].Celda.211.2009.1080p.BluRay.DTS.x265 10bit 4.47GB 动作片 剧情片 海外电影  第1张

◎译 名 囚室211 / 夺狱困兽 / 牢里牢外 / Cell 211

◎片 名 Celda 211

◎年 代 2009

◎产 地 西班牙 / 法国

◎类 别 剧情 / 动作

◎语 言 西班牙语 / 巴斯克语 / 英语

◎上映日期 2009-11-06(西班牙)

◎IMDb链接 https://www.imdb.com/title/tt1242422/

◎豆瓣评分 8.0/10 (39043人评价)

◎豆瓣链接 https://movie.douban.com/subject/3103418/

◎片 长 113 分钟

◎导 演 丹尼尔·蒙宗 Daniel Monzón (id:1292388)

◎编 剧 丹尼尔·蒙宗 Daniel Monzón (id:1292388)

豪尔赫·格力加耶切瓦利亚 Jorge Guerricaechevarría (id:1285615)

Francisco Pérez Gandul (id:1261367)

◎演 员 路易斯·托萨尔 Luis Tosar (id:1027448)

阿尔维托·阿曼 Alberto Ammann (id:1314703)

安东尼奥·雷西内斯 Antonio Resines (id:1025408)

曼努埃尔·莫龙 Manuel Morón (id:1127231)

卡洛斯·巴登 Carlos Bardem (id:1277892)

玛尔塔·埃图拉 Marta Etura (id:1041448)

路易斯·扎赫拉 Luis Zahera (id:1387630)

曼诺罗·索洛 Manolo Solo (id:1365968)

帕特希·柏斯库尔特 Patxi Bisquert (id:1051573)

乔斯因·本格特伊 Joxean Bengoetxea (id:1050737)

文森特·罗米洛 Vicente Romero (id:1305118)

菲利克斯·库贝罗 Félix Cubero (id:1078111)

希拉里皮诺 Hilario Pino (id:1127546)

佩德罗皮皮拉斯 Pedro Piqueras (id:1134986)

大卫·塞尔瓦斯 David Selvas (id:1142512)

赫苏斯·卡罗萨 Jesús Carroza (id:1183389)

Juan Carlos Mangas (id:1267394)

Emma Lustres Emma Lustres (id:1334157)

Borja Pena Borja Pena (id:1334158)

阿尔瓦罗·安古斯丁 álvaro Augustín (id:1312604)

罗克·巴尼奥斯 Roque Ba?os (id:1278142)

Carles Gusi Carles Gusi (id:1285656)

Cristina Pastor Cristina Pastor (id:1334165)

Montse Sancho Montse Sancho (id:1302443)

蒙特塞·里贝 Montse Ribé (id:1307544)

Raquel Fidalgo Raquel Fidalgo (id:1334176)

大卫·马尔蒂 David Martí (id:1291170)

Inés Rodríguez Inés Rodríguez (id:1334177)

劳尔·罗曼尼洛斯 Raúl Romanillos (id:1295967)

Thorsten Rienth Thorsten Rienth (id:1013187)

Guillermo Orbe Guillermo Orbe (id:1334167)

Alicia Tellería Alicia Tellería (id:1334174)

◎标 签 西班牙 / 犯罪 / 人性 / 监狱 / 监狱,人性,真相 / 暴力 / 西班牙电影 / 剧情

◎简 介

新任狱警胡安(Alberto Ammann 饰)为展示良好职业风貌,提前一天入狱体验工作。而在这一天里,犯人头目“恶母”击伤狱警,带领犯人暴动,监狱陷入了一片混乱……胡安因受伤被同伴丢弃在211囚室,为了避免被犯人们当做人质,他只得乔装罪犯,谋取恶母的信任,试图寻找脱身机会。犯人们以监狱中的三名刑期百年以上的“埃塔”恐怖分子要挟官方答应他们的谈判条件,因政府与埃塔方面有协议在先,监狱方与特别行动组投鼠忌器,迟迟不能强攻,致使局势僵持。另一方面,监狱暴动经媒体报道后引起连锁反应,家属们纷纷来到监狱探听消息,却遭到狱警们的毒打,胡安怀有身孕的妻子不幸受伤,而这让本欲确保自己脱身并协助狱方平息事端的胡安做出了疯狂的举动……

本片横扫2009年西班牙戈雅奖最佳电影、导演、男主角等八个主要奖项。

◎获奖情况 (共17项)

第23届欧洲电影奖 (2010)

最佳男主角(提名)

└──路易斯·托萨尔 (id:1027448)

最佳编剧(提名)

第24届西班牙戈雅奖 (2010)

最佳影片

最佳导演

└──丹尼尔·蒙宗 (id:1292388)

最佳男主角

└──路易斯·托萨尔 (id:1027448)

最佳男配角(提名)

最佳女配角

└──玛尔塔·埃图拉 (id:1041448)

最佳新人男演员

└──阿尔维托·阿曼 (id:1314703)

最佳改编剧本

最佳摄影(提名)

└──Carles Gusi (id:1285656)

最佳剪辑

└──Cristina Pastor (id:1334165)

最佳艺术指导(提名)

└──Antón Laguna (id:1334078)

最佳制作人(提名)

└──Alicia Tellería (id:1334174)

最佳音效

最佳特效(提名)

最佳化妆与发型(提名)

最佳原创音乐(提名)

└──罗克·巴尼奥斯 (id:1278142)

  1. ##### MediaInfo ######

  2. General

  3. Unique ID : 71101076331218750942394688274265357168 (0x357D91B6FD451AA204DE94B12D513B70)

  4. Complete name : Celda.211.2009.1080p.BluRay.DTS.x265-10bit-10007@BBQDDQ.COM.mkv

  5. Format : Matroska

  6. Format version : Version 4

  7. File size : 4.47 GiB

  8. Duration : 1 h 47 min

  9. Overall bit rate : 5 924 kb/s

  10. Movie name : Celda 211 2009 1080p BluRay DTS x265-10bit-10007@BBQDDQ.COM

  11. Encoded date : UTC 2021-09-11 01:58:11

  12. Writing application : mkvmerge v38.0.0 ('The Silent Type') 64-bit

  13. Writing library : libebml v1.3.9 + libmatroska v1.5.2


  14. Video

  15. ID : 1

  16. Format : HEVC

  17. Format/Info : High Efficiency Video Coding

  18. Format profile : Main 10@L5.1@High

  19. Codec ID : V_MPEGH/ISO/HEVC

  20. Duration : 1 h 47 min

  21. Bit rate : 5 124 kb/s

  22. Width : 1 920 pixels

  23. Height : 1 036 pixels

  24. Display aspect ratio : 1.85:1

  25. Frame rate mode : Constant

  26. Frame rate : 25.000 FPS

  27. Color space : YUV

  28. Chroma subsampling : 4:2:0

  29. Bit depth : 10 bits

  30. Bits/(Pixel*Frame) : 0.103

  31. Stream size : 3.86 GiB (86%)

  32. Title : howfuckedareyounow@HDSky

  33. Writing library : x265 - H.265/HEVC codec

  34. Default : Yes

  35. Forced : No


  36. Audio

  37. ID : 2

  38. Format : DTS

  39. Format/Info : Digital Theater Systems

  40. Codec ID : A_DTS

  41. Duration : 1 h 47 min

  42. Bit rate mode : Constant

  43. Bit rate : 768 kb/s

  44. Channel(s) : 6 channels

  45. Channel layout : C L R Ls Rs LFE

  46. Sampling rate : 48.0 kHz

  47. Frame rate : 93.750 FPS (512 SPF)

  48. Bit depth : 24 bits

  49. Compression mode : Lossy

  50. Stream size : 593 MiB (13%)

  51. Title : Spanish

  52. Language : Spanish

  53. Default : Yes

  54. Forced : No


  55. Text #1

  56. ID : 3

  57. Format : PGS

  58. Muxing mode : zlib

  59. Codec ID : S_HDMV/PGS

  60. Codec ID/Info : Picture based subtitle format used on BDs/HD-DVDs

  61. Duration : 1 h 39 min

  62. Bit rate : 36.5 kb/s

  63. Count of elements : 2478

  64. Stream size : 25.9 MiB (1%)

  65. Title : CHS

  66. Language : Chinese

  67. Default : Yes

  68. Forced : No


  69. Text #2

  70. ID : 4

  71. Format : PGS

  72. Muxing mode : zlib

  73. Codec ID : S_HDMV/PGS

  74. Codec ID/Info : Picture based subtitle format used on BDs/HD-DVDs

  75. Duration : 1 h 39 min

  76. Bit rate : 37.1 kb/s

  77. Count of elements : 2478

  78. Stream size : 26.3 MiB (1%)

  79. Title : CHT

  80. Language : Chinese

  81. Default : No

  82. Forced : No


  83. Menu

  84. 00:00:00.000 : en:Chapter 01

  85. 00:05:22.920 : en:Chapter 02

  86. 00:14:38.000 : en:Chapter 03

  87. 00:21:47.320 : en:Chapter 04

  88. 00:28:00.880 : en:Chapter 05

  89. 00:35:38.920 : en:Chapter 06

  90. 00:43:24.120 : en:Chapter 07

  91. 00:52:30.480 : en:Chapter 08

  92. 00:58:59.800 : en:Chapter 09

  93. 01:08:39.680 : en:Chapter 10

  94. 01:22:41.240 : en:Chapter 11

  95. 01:37:41.600 : en:Chapter 12


文件下载


除非特别注明,本文『囚室211[中文字幕].Celda.211.2009.1080p.BluRay.DTS.x265-10bit 4.47GB』来源于互联网机器人自动抓取,非本站原创。 浮游电影网不对本文拥有版权,如有侵犯,请联系邮箱:fuyouu#yandex.com[#换成@]投诉。我们会在15个工作日内删除。 但烦请转载时请标明出处:“本文转载于『浮游电影网』,原文地址:https://www.fuyouu.com/14373.html

评论吧骚年!

发表你的见解   

昵称*

E-mail*(建议输入,以便收到博主回复的提示邮件)

验证码*

您可以使用eMule或eMule Mod(Windows)、aMule(Win、Linux、Mac)等软件下载eD2k链接。。
eMule收藏集(.emulecollection)文件是您选中的所有链接的列表文件。eMule可以直接下载它们。
按住SHIFT键选择可以选中多个选择框。
可用文件名和大小选择器来选择文件。
文件名选择器帮您根据文件名称或后缀来选择文件。不分大小写。
符号使用:
和:空格( )、+
不包含:-
或:|
转义:一对英文引号("");
匹配开头:^
匹配结尾:$
例如:
选中所有名称中包含有“eMule”或“0.49c”字眼,但不包含有“exe”字眼的:emule|0.49c -exe
选中所有名称的开头是“eMule”,结尾是“0.49c”的:^emule 0.49c$
选中所有名称中带有“eMule 0.49c”的(必须是“eMule 0.49c”,中间没有别的字符,不能是“eMule fake 0.49c”),需要转义:"emule 0.49c"
大小选择器帮您根据文件大小选择文件。