当前位置: 首页 >> 国产电影 >> 前任3:再见前任[国语配音/中文字幕].The.Ex.File.3.2017.1080p.BluRay.x265.10bit.DTS 5.82GB >> 正文

前任3:再见前任[国语配音/中文字幕].The.Ex.File.3.2017.1080p.BluRay.x265.10bit.DTS 5.82GB

2021年09月14日 15:30:00     电影发布:来源于网络     电影分类:国产电影     评论(0)    

前任3:再见前任[国语配音/中文字幕].The.Ex.File.3.2017.1080p.BluRay.x265.10bit.DTS 5.82GB 爱情片 喜剧片 国产电影  第1张

◎译 名 前任3:再见前任 / 前任3 / 前任攻略3 / 前任3:颜值大作战 / The Ex-File: The Return of the Exes

◎年 代 2017

◎产 地 中国大陆

◎类 别 喜剧 / 爱情

◎语 言 汉语普通话

◎上映日期 2017-12-29(中国大陆)

◎IMDb链接 https://www.imdb.com/title/tt7830888/

◎豆瓣评分 5.5/10 (357340人评价)

◎豆瓣链接 https://movie.douban.com/subject/26662193/

◎片 长 120分钟

◎导 演 田羽生 Yusheng Tian (id:1332171)

◎编 剧 田羽生 Yusheng Tian (id:1332171)

游非 Jia Chang (id:1372979)

大宽 Da Kuan (id:1352304)

大广 Da Guang (id:1385564)

◎演 员 韩庚 Geng Han (id:1275667)

郑恺 Kai Zheng (id:1275564)

于文文 Kelly Yu (id:1342252)

曾梦雪 Mengxue Zeng (id:1376370)

罗米 Mi Luo (id:1365997)

林乐炫 Lexuan Lin (id:1436352)

叶可儿 Kiko (id:1440835)

杨庭恺 Bernard Yang (id:1443208)

邹沙沙 Aiken Zou Shasha (id:1392574)

王中磊 Zhonglei Wang (id:1276037)

冯提莫 Timo Feng (id:1388742)

米昊易 (id:1439940)

◎标 签 爱情 / 感动 / 都市 / 喜剧 / 青春 / 中国大陆 / 搞笑 / 2017

◎简 介

一对好基友孟云(韩庚 饰)和余飞(郑恺 饰)跟女友都因为一点小事宣告分手,并且“拒绝挽回,死不认错”。两人在夜店、派对与交友软件上放飞人生第二春,大肆庆祝“黄金单身期”,从而引发了一系列好笑的故事。孟云与女友同甘共苦却难逃“五年之痒”,余飞与女友则棋逢敌手相爱相杀无绝期。然而现实的“打脸”却来得猝不及防:一对推拉纠结零往来,一对纠缠互怼全交代。两对恋人都将面对最终的选择:是再次相见?还是再也不见?

  1. ##### MediaInfo ######

  2. General

  3. Unique ID : 31306712048101303772641461996914909583 (0x178D74134AC9B024FE6E3ED2ECF6A18F)

  4. Complete name : The.Ex.File.3.2017.1080p.BluRay.x265.10bit.DTS-10017@BBQDDQ.COM.mkv

  5. Format : Matroska

  6. Format version : Version 4

  7. File size : 5.82 GiB

  8. Duration : 1 h 59 min

  9. Overall bit rate : 6 972 kb/s

  10. Movie name : The Ex-File 3

  11. Encoded date : UTC 2021-09-12 14:59:57

  12. Writing application : mkvmerge v61.0.0 ('So') 64-bit

  13. Writing library : libebml v1.4.2 + libmatroska v1.6.4

  14. Cover : Yes

  15. Attachments : cover.jpg / WenQuanWeiMiHei-1.ttf


  16. Video

  17. ID : 1

  18. Format : HEVC

  19. Format/Info : High Efficiency Video Coding

  20. Format profile : Main 10@L4@Main

  21. Codec ID : V_MPEGH/ISO/HEVC

  22. Duration : 1 h 59 min

  23. Bit rate : 5 442 kb/s

  24. Width : 1 920 pixels

  25. Height : 804 pixels

  26. Display aspect ratio : 2.40:1

  27. Frame rate mode : Constant

  28. Frame rate : 24.000 FPS

  29. Color space : YUV

  30. Chroma subsampling : 4:2:0

  31. Bit depth : 10 bits

  32. Bits/(Pixel*Frame) : 0.147

  33. Stream size : 4.54 GiB (78%)

  34. Writing library : x265 3.5+2-g2b25c9ba0+45:[Windows][GCC 10.2.0][64 bit] Yuuki 10bit+8bit+12bit

  35. Encoding settings : rc=crf / crf=17.0000 / qcomp=0.65 / qpstep=4 / stats-write=0 / stats-read=0 / no-lossless / no-cu-lossless / aq-mode=3 / aq-strength=0.80 / cbqpoffs=0 / crqpoffs=0 / ipratio=1.40 / pbratio=1.30 / psy-rd=2.00 / psy-rdoq=0.00 / deblock=0:0 / ref=6 / limit-refs=1 / no-limit-modes / bframes=8 / b-adapt=2 / bframe-bias=0 / b-pyramid / b-intra / weightp / weightb / min-keyint=24 / max-keyint=240 / rc-lookahead=24 / gop-lookahead=0 / NTMzNTQ=uuDQuD2mJt9fsCf / scenecut=40 / hist-scenecut=0 / radl=0 / max-cu-size=64 / min-cu-size=8 / me=3 / subme=7 / merange=48 / rdoq-level=0 / rd=4 / rdpenalty=0 / dynamic-rd=0.00 / no-rd-refine / ----- / cutree / sao / no-rect / no-amp / no-open-gop / wpp / no-pmode / pme / no-psnr / no-ssim / nr-intra=0 / nr-inter=0 / no-constrained-intra / no-strong-intra-smoothing / max-tu-size=32 / tu-inter-depth=1 / tu-intra-depth=1 / limit-tu=0 / qg-size=32 / qpmax=69 / qpmin=0 / ----- / cpuid=533541111039 / frame-threads=4 / numa-pools=+ / log-level=2 / input-csp=1 / input-res=1920x804 / interlace=0 / level-idc=0 / high-tier=1 / uhd-bd=0 / no-allow-non-conformance / no-repeat-headers / aud / no-hrd / info / hash=0 / no-temporal-layers / lookahead-slices=0 / no-splice / no-intra-refresh / no-ssim-rd / signhide / no-tskip / max-merge=3 / temporal-mvp / no-frame-dup / no-hme / no-analyze-src-pics / no-sao-non-deblock / selective-sao=4 / early-skip / rskip / no-fast-intra / no-tskip-fast / no-splitrd-skip / zone-count=0 / no-strict-cbr / no-rc-grain / no-const-vbv / sar=0 / overscan=0 / videoformat=5 / range=0 / colorprim=2 / transfer=2 / colormatrix=2 / chromaloc=0 / display-window=0 / cll=0,0 / min-luma=0 / max-luma=1023 / log2-max-poc-lsb=8 / vui-timing-info / vui-hrd-info / slices=1 / no-opt-qp-pps / no-opt-ref-list-length-pps / no-multi-pass-opt-rps / scenecut-bias=0.05 / hist-threshold=0.03 / no-opt-cu-delta-qp / no-aq-motion / no-hdr10 / no-hdr10-opt / no-dhdr10-opt / no-idr-recovery-sei / analysis-reuse-level=0 / analysis-save-reuse-level=0 / analysis-load-reuse-level=0 / scale-factor=0 / refine-intra=0 / refine-inter=0 / refine-mv=1 / refine-ctu-distortion=0 / no-limit-sao / ctu-info=0 / no-lowpass-dct / refine-analysis-type=0 / copy-pic=1 / max-ausize-factor=1.0 / no-dynamic-refine / no-single-sei / no-hevc-aq / no-svt / no-field / qp-adaptation-range=1.00 / scenecut-aware-qp=0conformance-window-offsets / right=0 / bottom=0 / NTMzNTQ= / decoder-max-rate=0 / no-vbv-live-multi-pass

  36. Default : Yes

  37. Forced : No


  38. Audio

  39. ID : 2

  40. Format : DTS

  41. Format/Info : Digital Theater Systems

  42. Codec ID : A_DTS

  43. Duration : 1 h 59 min

  44. Bit rate mode : Constant

  45. Bit rate : 1 510 kb/s

  46. Channel(s) : 6 channels

  47. Channel layout : C L R Ls Rs LFE

  48. Sampling rate : 48.0 kHz

  49. Frame rate : 93.750 FPS (512 SPF)

  50. Bit depth : 24 bits

  51. Compression mode : Lossy

  52. Stream size : 1.26 GiB (22%)

  53. Title : Mandarin

  54. Language : Chinese

  55. Default : Yes

  56. Forced : No


  57. Text #1

  58. ID : 3

  59. Format : ASS

  60. Codec ID : S_TEXT/ASS

  61. Codec ID/Info : Advanced Sub Station Alpha

  62. Duration : 1 h 53 min

  63. Bit rate : 94 b/s

  64. Count of elements : 1961

  65. Compression mode : Lossless

  66. Stream size : 78.5 KiB (0%)

  67. Title : chs

  68. Language : Chinese

  69. Default : Yes

  70. Forced : No


  71. Text #2

  72. ID : 4

  73. Format : ASS

  74. Codec ID : S_TEXT/ASS

  75. Codec ID/Info : Advanced Sub Station Alpha

  76. Duration : 1 h 53 min

  77. Bit rate : 94 b/s

  78. Count of elements : 1961

  79. Compression mode : Lossless

  80. Stream size : 78.5 KiB (0%)

  81. Title : cht

  82. Language : Chinese

  83. Default : No

  84. Forced : No


  85. Text #3

  86. ID : 5

  87. ID in the original source medium : 4610 (0x1202)

  88. Format : PGS

  89. Muxing mode : zlib

  90. Codec ID : S_HDMV/PGS

  91. Codec ID/Info : Picture based subtitle format used on BDs/HD-DVDs

  92. Duration : 1 h 53 min

  93. Bit rate : 44.0 kb/s

  94. Count of elements : 3037

  95. Stream size : 35.8 MiB (1%)

  96. Title : eng

  97. Language : English

  98. Default : No

  99. Forced : No

  100. Original source medium : Blu-ray


  101. Menu

  102. 00:00:00.000 : Chapter 01

  103. 00:04:56.750 : Chapter 02

  104. 00:10:58.750 : Chapter 03

  105. 00:18:11.625 : Chapter 04

  106. 00:24:00.291 : Chapter 05

  107. 00:30:12.500 : Chapter 06

  108. 00:36:23.833 : Chapter 07

  109. 00:41:21.125 : Chapter 08

  110. 00:46:02.541 : Chapter 09

  111. 00:53:11.791 : Chapter 10

  112. 00:58:44.166 : Chapter 11

  113. 01:04:42.583 : Chapter 12

  114. 01:10:42.208 : Chapter 13

  115. 01:18:04.250 : Chapter 14

  116. 01:23:07.291 : Chapter 15

  117. 01:29:04.500 : Chapter 16

  118. 01:37:13.958 : Chapter 17

  119. 01:41:44.125 : Chapter 18

  120. 01:47:33.875 : Chapter 19

  121. 01:54:25.666 : Chapter 20


文件下载


除非特别注明,本文『前任3:再见前任[国语配音/中文字幕].The.Ex.File.3.2017.1080p.BluRay.x265.10bit.DTS 5.82GB』来源于互联网机器人自动抓取,非本站原创。 浮游电影网不对本文拥有版权,如有侵犯,请联系邮箱:fuyouu#yandex.com[#换成@]投诉。我们会在15个工作日内删除。 但烦请转载时请标明出处:“本文转载于『浮游电影网』,原文地址:https://www.fuyouu.com/14372.html

评论吧骚年!

发表你的见解   

昵称*

E-mail*(建议输入,以便收到博主回复的提示邮件)

验证码*

您可以使用eMule或eMule Mod(Windows)、aMule(Win、Linux、Mac)等软件下载eD2k链接。。
eMule收藏集(.emulecollection)文件是您选中的所有链接的列表文件。eMule可以直接下载它们。
按住SHIFT键选择可以选中多个选择框。
可用文件名和大小选择器来选择文件。
文件名选择器帮您根据文件名称或后缀来选择文件。不分大小写。
符号使用:
和:空格( )、+
不包含:-
或:|
转义:一对英文引号("");
匹配开头:^
匹配结尾:$
例如:
选中所有名称中包含有“eMule”或“0.49c”字眼,但不包含有“exe”字眼的:emule|0.49c -exe
选中所有名称的开头是“eMule”,结尾是“0.49c”的:^emule 0.49c$
选中所有名称中带有“eMule 0.49c”的(必须是“eMule 0.49c”,中间没有别的字符,不能是“eMule fake 0.49c”),需要转义:"emule 0.49c"
大小选择器帮您根据文件大小选择文件。