当前位置: 首页 >> 欧美电影 >> 我恨你的十件事[中文字幕].10.Things.I.Hate.About.You.1999.BluRay.1080p.DTS-HD.MA.5.1.x265.10bit 8.30GB >> 正文

我恨你的十件事[中文字幕].10.Things.I.Hate.About.You.1999.BluRay.1080p.DTS-HD.MA.5.1.x265.10bit 8.30GB

2021年09月14日 15:28:55     电影发布:来源于网络     电影分类:欧美电影     评论(0)    

我恨你的十件事[中文字幕].10.Things.I.Hate.About.You.1999.BluRay.1080p.DTS HD.MA.5.1.x265.10bit 8.30GB 爱情片 喜剧片 欧美电影  第1张

◎译 名 我恨你的十件事 / 对面的恶女看过来 / 恋爱新世纪 / 十宗罪 / 十个我恨你的理由 / 我恨你的10件事 / 我最恨你的十件事情

◎片 名 10 Things I Hate About You

◎年 代 1999

◎产 地 美国

◎类 别 喜剧 / 爱情

◎语 言 英语

◎上映日期 1999-03-31

◎IMDb链接 https://www.imdb.com/title/tt0147800/

◎豆瓣评分 7.9/10 (45249人评价)

◎豆瓣链接 https://movie.douban.com/subject/1296359/

◎片 长 97 分钟

◎导 演 吉尔·约格尔 Gil Junger (id:1041409)

◎编 剧 克尔斯滕·史密斯 Kirsten Smith (id:1023155)

威廉·莎士比亚 William Shakespeare (id:1044735)

◎演 员 朱丽娅·斯蒂尔斯 Julia Stiles (id:1000001)

希斯·莱杰 Heath Ledger (id:1006957)

约瑟夫·高登-莱维特 Joseph Gordon-Levitt (id:1101703)

拉丽莎·奥蕾尼克 Larisa Oleynik (id:1017900)

大卫·克朗姆霍茨 David Krumholtz (id:1044908)

安德鲁·凯加 Andrew Keegan (id:1007017)

Brian Mashburn Brian Mashburn (id:1116946)

达里尔·米切尔 Daryl Mitchell (id:1117248)

Quinn Maixner Quinn Maixner (id:1125194)

戴维·莱热 David Leisure (id:1125800)

迈克尔·佩纳 Michael Pe?a (id:1131634)

Monique Powell Monique Powell (id:1133578)

Shelsie Blake Shelsie Blake (id:1195345)

Katy Magnuson Katy Magnuson (id:1216746)

Bridget O'Neill Bridget O'Neill (id:1217352)

汤米·斯尼德尔 Tommy Snider (id:1222993)

Ben Laurance Ben Laurance (id:1110939)

卡洛斯·拉卡马拉 Carlos Lacamara (id:1110394)

比安卡·卡里什 Bianca Kajlich (id:1000079)

苏珊·梅·普拉特 Susan May Pratt (id:1004708)

拉里·米勒 Larry Miller (id:1027855)

加布里埃尔·尤尼恩 Gabrielle Union (id:1041122)

艾莉森·珍妮 Allison Janney (id:1041139)

吉尔·约格尔 Gil Junger (id:1041409)

Kyle Cease Kyle Cease (id:1075094)

Kay Hanley Kay Hanley (id:1102179)

Daniel Kountz Daniel Kountz (id:1104541)

Greg Jackson Greg Jackson (id:1107340)

埃里克·里德曼 Eric Riedmann (id:1412650)

Richard Gibbs Richard Gibbs (id:1037124)

Mark Irwin Mark Irwin (id:1025459)

O. Nicholas Brown O. Nicholas Brown (id:1020141)

Gail Goldberg Gail Goldberg (id:1285042)

Marcia Ross Marcia Ross (id:1296148)

Donna Morong Donna Morong (id:1287513)

Sally Sue Beisel Sally Sue Beisel (id:1278236)

◎标 签 青春 / 美国 / 爱情 / 喜剧 / HeathLedger / 校园 / 校园青春 / 美国电影

◎简 介

比安卡(Larisa Oleynik饰)是全校公认的甜心宝贝,可事实上,她甚至未有过一次约会——比安卡的老爸对女儿的管教极尽苛刻,男生们只能对她望而却步。

在女儿的不断抗议下,老爸终于做了“让步”,他声明,比安卡可以约会,只要她的姐姐凯特(Julia Stiles饰)也去。听到这个消息,暗恋比安卡的喀麦隆(Joseph Gordon-Levitt饰)决心无论如何都要找到能和凯特约会的人。千挑万选之下,他找到派特里克(Heath Ledger饰)帮忙。

凯特可是人人眼中的怪物啊,仿佛愤世嫉俗般,对任何人和事都有一股不满的情绪。要让约会顺利进行,这是前所未有的挑战,还是一个不可能的任务?

  1. ##### MediaInfo ######

  2. General

  3. Unique ID : 128194492051956978828076514081409166140 (0x60715C70B61602EC203737732D656B3C)

  4. Complete name : 10.Things.I.Hate.About.You.1999.BluRay.1080p.DTS-HD.MA.5.1.x265.10bit-10008@BBQDDQ.COM.mkv

  5. Format : Matroska

  6. Format version : Version 4

  7. File size : 8.30 GiB

  8. Duration : 1 h 37 min

  9. Overall bit rate mode : Variable

  10. Overall bit rate : 12.2 Mb/s

  11. Encoded date : UTC 2021-09-11 21:46:38

  12. Writing application : mkvmerge v60.0.0 ('Are We Copies?') 64-bit

  13. Writing library : libebml v1.4.2 + libmatroska v1.6.4


  14. Video

  15. ID : 1

  16. Format : HEVC

  17. Format/Info : High Efficiency Video Coding

  18. Format profile : Main 10@L5@Main

  19. Codec ID : V_MPEGH/ISO/HEVC

  20. Duration : 1 h 37 min

  21. Bit rate : 9 109 kb/s

  22. Width : 1 920 pixels

  23. Height : 1 040 pixels

  24. Display aspect ratio : 1.85:1

  25. Frame rate mode : Constant

  26. Frame rate : 23.976 (24000/1001/53354) FPS

  27. Color space : YUV

  28. Chroma subsampling : 4:2:0

  29. Bit depth : 10 bits

  30. Bits/(Pixel*Frame) : 0.190

  31. Stream size : 6.21 GiB (75%)

  32. Writing library : x265 3.5+11-c8905a745:[Windows][MSVC 1929][64 bit] 10bit

  33. Encoding settings : cpuid=533541111039 / frame-threads=4 / numa-pools=16 / wpp / no-pmode / pme / no-psnr / no-ssim / log-level=2 / input-csp=1 / input-res=1920x1040 / interlace=0 / total-frames=0 / level-idc=0 / high-tier=1 / uhd-bd=0 / ref=6 / no-allow-non-conformance / repeat-headers / annexb / no-aud / no-eob / no-eos / no-hrd / info / hash=0 / no-temporal-layers / no-open-gop / min-keyint=23 / keyint=250 / gop-lookahead=0 / bframes=8 / b-adapt=2 / b-pyramid / bframe-bias=0 / rc-lookahead=57 / lookahead-slices=6 / NTMzNTQ=uuDQuD2mJt9fsCf / scenecut=40 / no-hist-scenecut / radl=0 / no-splice / no-intra-refresh / ctu=64 / min-cu-size=8 / no-rect / no-amp / max-tu-size=32 / tu-inter-depth=1 / tu-intra-depth=1 / limit-tu=0 / rdoq-level=0 / dynamic-rd=0.00 / no-ssim-rd / signhide / no-tskip / nr-intra=0 / nr-inter=0 / no-constrained-intra / no-strong-intra-smoothing / max-merge=3 / limit-refs=1 / no-limit-modes / me=2 / subme=7 / merange=57 / temporal-mvp / no-frame-dup / no-hme / weightp / weightb / no-analyze-src-pics / deblock=-3:-3 / sao / no-sao-non-deblock / rd=4 / selective-sao=4 / early-skip / rskip / no-fast-intra / no-tskip-fast / no-cu-lossless / b-intra / no-splitrd-skip / rdpenalty=0 / psy-rd=2.00 / psy-rdoq=0.00 / no-rd-refine / no-lossless / cbqpoffs=0 / crqpoffs=0 / rc=crf / crf=16.0 / qcomp=0.60 / qpstep=4 / stats-write=0 / stats-read=0 / ipratio=1.40 / pbratio=1.30 / aq-mode=3 / aq-strength=0.80 / cutree / zone-count=0 / no-strict-cbr / qg-size=32 / no-rc-grain / qpmax=69 / qpmin=0 / no-const-vbv / sar=0 / overscan=0 / videoformat=5 / range=0 / colorprim=2 / transfer=2 / colormatrix=2 / chromaloc=0 / display-window=0 / cll=0,0 / min-luma=0 / max-luma=1023 / log2-max-poc-lsb=8 / vui-timing-info / vui-hrd-info / slices=1 / no-opt-qp-pps / no-opt-ref-list-length-pps / no-multi-pass-opt-rps / scenecut-bias=0.05 / hist-threshold=0.03 / no-opt-cu-delta-qp / aq-motion / no-hdr10 / no-hdr10-opt / no-dhdr10-opt / no-idr-recovery-sei / analysis-reuse-level=0 / analysis-save-reuse-level=0 / analysis-load-reuse-level=0 / scale-factor=0 / refine-intra=0 / refine-inter=0 / refine-mv=1 / refine-ctu-distortion=0 / no-limit-sao / ctu-info=0 / no-lowpass-dct / refine-analysis-type=0 / copy-pic=1 / max-ausize-factor=1.0 / no-dynamic-refine / no-single-sei / no-hevc-aq / no-svt / no-field / qp-adaptation-range=1.00 / scenecut-aware-qp=0conformance-window-offsets / right=0 / bottom=0 / NTMzNTQ= / decoder-max-rate=0 / no-vbv-live-multi-pass

  34. Default : Yes

  35. Forced : No


  36. Audio

  37. ID : 2

  38. Format : DTS XLL

  39. Format/Info : Digital Theater Systems

  40. Commercial name : DTS-HD Master Audio

  41. Codec ID : A_DTS

  42. Duration : 1 h 37 min

  43. Bit rate mode : Variable

  44. Bit rate : 2 928 kb/s

  45. Channel(s) : 6 channels

  46. Channel layout : C L R Ls Rs LFE

  47. Sampling rate : 48.0 kHz

  48. Frame rate : 93.750 FPS (512 SPF)

  49. Bit depth : 24 bits

  50. Compression mode : Lossless

  51. Stream size : 2.00 GiB (24%)

  52. Language : English

  53. Default : Yes

  54. Forced : No


  55. Text #1

  56. ID : 3

  57. Format : PGS

  58. Muxing mode : zlib

  59. Codec ID : S_HDMV/PGS

  60. Codec ID/Info : Picture based subtitle format used on BDs/HD-DVDs

  61. Duration : 1 h 37 min

  62. Bit rate : 47.4 kb/s

  63. Count of elements : 3082

  64. Stream size : 33.0 MiB (0%)

  65. Language : English

  66. Default : Yes

  67. Forced : No


  68. Text #2

  69. ID : 4

  70. Format : PGS

  71. Muxing mode : zlib

  72. Codec ID : S_HDMV/PGS

  73. Codec ID/Info : Picture based subtitle format used on BDs/HD-DVDs

  74. Duration : 1 h 35 min

  75. Bit rate : 38.5 kb/s

  76. Count of elements : 2384

  77. Stream size : 26.3 MiB (0%)

  78. Language : English

  79. Default : Yes

  80. Forced : No


  81. Text #3

  82. ID : 5

  83. Format : PGS

  84. Muxing mode : zlib

  85. Codec ID : S_HDMV/PGS

  86. Codec ID/Info : Picture based subtitle format used on BDs/HD-DVDs

  87. Duration : 1 h 37 min

  88. Bit rate : 35.2 kb/s

  89. Count of elements : 2385

  90. Stream size : 24.5 MiB (0%)

  91. Language : Chinese

  92. Default : Yes

  93. Forced : No


  94. Text #4

  95. ID : 6

  96. Format : PGS

  97. Muxing mode : zlib

  98. Codec ID : S_HDMV/PGS

  99. Codec ID/Info : Picture based subtitle format used on BDs/HD-DVDs

  100. Duration : 1 h 37 min

  101. Bit rate : 34.7 kb/s

  102. Count of elements : 2385

  103. Stream size : 24.2 MiB (0%)

  104. Language : Chinese

  105. Default : Yes

  106. Forced : No


  107. Text #5

  108. ID : 7

  109. Format : PGS

  110. Muxing mode : zlib

  111. Codec ID : S_HDMV/PGS

  112. Codec ID/Info : Picture based subtitle format used on BDs/HD-DVDs

  113. Duration : 1 h 37 min

  114. Bit rate : 72.0 kb/s

  115. Count of elements : 2385

  116. Stream size : 50.1 MiB (1%)

  117. Language : Chinese

  118. Default : Yes

  119. Forced : No


  120. Text #6

  121. ID : 8

  122. Format : PGS

  123. Muxing mode : zlib

  124. Codec ID : S_HDMV/PGS

  125. Codec ID/Info : Picture based subtitle format used on BDs/HD-DVDs

  126. Duration : 1 h 37 min

  127. Bit rate : 71.5 kb/s

  128. Count of elements : 2385

  129. Stream size : 49.8 MiB (1%)

  130. Language : Chinese

  131. Default : Yes

  132. Forced : No


  133. Menu

  134. 00:00:00.000 : :第 01 章

  135. 00:05:44.469 : :第 02 章

  136. 00:12:34.128 : :第 03 章

  137. 00:15:51.284 : :第 04 章

  138. 00:21:54.396 : :第 05 章

  139. 00:25:59.391 : :第 06 章

  140. 00:31:53.495 : :第 07 章

  141. 00:36:00.742 : :第 08 章

  142. 00:41:40.998 : :第 09 章

  143. 00:51:32.631 : :第 10 章

  144. 00:56:35.350 : :第 11 章

  145. 01:00:01.223 : :第 12 章

  146. 01:03:02.362 : :第 13 章

  147. 01:05:06.486 : :第 14 章

  148. 01:07:39.597 : :第 15 章

  149. 01:10:15.461 : :第 16 章

  150. 01:14:55.491 : :第 17 章

  151. 01:18:12.187 : :第 18 章

  152. 01:25:58.111 : :第 19 章

  153. 01:29:08.718 : :第 20 章

  154. 01:32:11.192 : :第 21 章


文件下载


除非特别注明,本文『我恨你的十件事[中文字幕].10.Things.I.Hate.About.You.1999.BluRay.1080p.DTS-HD.MA.5.1.x265.10bit 8.30GB』来源于互联网机器人自动抓取,非本站原创。 浮游电影网不对本文拥有版权,如有侵犯,请联系邮箱:fuyouu#yandex.com[#换成@]投诉。我们会在15个工作日内删除。 但烦请转载时请标明出处:“本文转载于『浮游电影网』,原文地址:https://www.fuyouu.com/14371.html

评论吧骚年!

发表你的见解   

昵称*

E-mail*(建议输入,以便收到博主回复的提示邮件)

验证码*

您可以使用eMule或eMule Mod(Windows)、aMule(Win、Linux、Mac)等软件下载eD2k链接。。
eMule收藏集(.emulecollection)文件是您选中的所有链接的列表文件。eMule可以直接下载它们。
按住SHIFT键选择可以选中多个选择框。
可用文件名和大小选择器来选择文件。
文件名选择器帮您根据文件名称或后缀来选择文件。不分大小写。
符号使用:
和:空格( )、+
不包含:-
或:|
转义:一对英文引号("");
匹配开头:^
匹配结尾:$
例如:
选中所有名称中包含有“eMule”或“0.49c”字眼,但不包含有“exe”字眼的:emule|0.49c -exe
选中所有名称的开头是“eMule”,结尾是“0.49c”的:^emule 0.49c$
选中所有名称中带有“eMule 0.49c”的(必须是“eMule 0.49c”,中间没有别的字符,不能是“eMule fake 0.49c”),需要转义:"emule 0.49c"
大小选择器帮您根据文件大小选择文件。