当前位置: 首页 >> 海外电影 >> 万德镇[双语字幕].Wander.2020.1080p.BluRay.DTS.x265-10bit 6.22GB >> 正文

万德镇[双语字幕].Wander.2020.1080p.BluRay.DTS.x265-10bit 6.22GB

2021年09月14日 15:26:34     电影发布:来源于网络     电影分类:海外电影     评论(0)    

万德镇[双语字幕].Wander.2020.1080p.BluRay.DTS.x265 10bit 6.22GB 惊悚片 动作片 海外电影  第1张

◎译 名 万德镇

◎片 名 Wander

◎年 代 2020

◎产 地 加拿大 / 美国

◎类 别 动作 / 惊悚

◎语 言 英语

◎上映日期 2020-12-04(美国网络)

◎IMDb链接 https://www.imdb.com/title/tt9689696/

◎豆瓣评分 5.4/10 (352人评价)

◎豆瓣链接 https://movie.douban.com/subject/33406469/

◎片 长 94分钟

◎导 演 爱普洛·马伦 April Mullen (id:1292684)

◎编 剧 蒂姆·多伦 Tim Doiron (id:1050905)

◎演 员 艾伦·艾克哈特 Aaron Eckhart (id:1053577)

汤米·李·琼斯 Tommy Lee Jones (id:1047994)

凯瑟琳·温妮克 Katheryn Winnick (id:1036354)

海瑟·格拉汉姆 Heather Graham (id:1048022)

雷蒙德·克鲁斯 Raymond Cruz (id:1076277)

布兰登·费尔 Brendan Fehr (id:1040563)

妮可·斯坦维德尔 Nicole Steinwedell (id:1319783)

大卫·吉布森 David Gibson (id:1399593)

本杰明·贝奈特 Benjamin Barrett (id:1423699)

蒂姆·多伦 Tim Doiron (id:1050905)

◎标 签 犯罪 / 惊悚 / 美国 / 剧情 / 2020 / 动作 / 艾伦·艾克哈特 / 美国电影

◎简 介

艾伦·艾克哈特将出演[她唇之下]导演爱普洛·马伦执导的惊悚片[万德](Wander,暂译)。该片剧本由蒂姆·多伦执笔,故事围绕着精神不稳定的私家侦探亚瑟·布莱特尼克(艾克哈特饰)展开。他受雇调查万德一个小镇里的可疑死亡案件,该起案件与导致他女儿死亡的阴谋有关。影片将于6月在新墨西哥州开拍。

  1. ##### MediaInfo ######

  2. General

  3. Unique ID : 185951056000814553042417515970247860892 (0x8BE4DEE5D1542276BA64760162B5229C)

  4. Complete name : Wander.2020.1080p.BluRay.DTS.x265-10bit-10007@BBQDDQ.COM.mkv

  5. Format : Matroska

  6. Format version : Version 4

  7. File size : 6.22 GiB

  8. Duration : 1 h 33 min

  9. Overall bit rate : 9 565 kb/s

  10. Movie name : Wander 2020 1080p BluRay DTS x265-10bit-10007@BBQDDQ.COM

  11. Encoded date : UTC 2021-09-12 06:00:33

  12. Writing application : mkvmerge v38.0.0 ('The Silent Type') 64-bit

  13. Writing library : libebml v1.3.9 + libmatroska v1.5.2


  14. Video

  15. ID : 1

  16. Format : HEVC

  17. Format/Info : High Efficiency Video Coding

  18. Format profile : Main 10@L5.1@High

  19. Codec ID : V_MPEGH/ISO/HEVC

  20. Duration : 1 h 33 min

  21. Bit rate : 8 727 kb/s

  22. Width : 1 920 pixels

  23. Height : 804 pixels

  24. Display aspect ratio : 2.40:1

  25. Frame rate mode : Constant

  26. Frame rate : 23.976 (24000/1001/53354) FPS

  27. Color space : YUV

  28. Chroma subsampling : 4:2:0

  29. Bit depth : 10 bits

  30. Bits/(Pixel*Frame) : 0.236

  31. Stream size : 5.68 GiB (91%)

  32. Title : @HDSky

  33. Writing library : x265 - H.265/HEVC codec

  34. Default : Yes

  35. Forced : No


  36. Audio

  37. ID : 2

  38. Format : DTS

  39. Format/Info : Digital Theater Systems

  40. Codec ID : A_DTS

  41. Duration : 1 h 33 min

  42. Bit rate mode : Constant

  43. Bit rate : 768 kb/s

  44. Channel(s) : 6 channels

  45. Channel layout : C L R Ls Rs LFE

  46. Sampling rate : 48.0 kHz

  47. Frame rate : 93.750 FPS (512 SPF)

  48. Bit depth : 24 bits

  49. Compression mode : Lossy

  50. Stream size : 512 MiB (8%)

  51. Title : English

  52. Language : English

  53. Default : Yes

  54. Forced : No


  55. Text #1

  56. ID : 3

  57. Format : PGS

  58. Muxing mode : zlib

  59. Codec ID : S_HDMV/PGS

  60. Codec ID/Info : Picture based subtitle format used on BDs/HD-DVDs

  61. Duration : 1 h 25 min

  62. Bit rate : 26.4 kb/s

  63. Count of elements : 1518

  64. Stream size : 16.2 MiB (0%)

  65. Title : CHS

  66. Language : Chinese

  67. Default : Yes

  68. Forced : No


  69. Text #2

  70. ID : 4

  71. Format : PGS

  72. Muxing mode : zlib

  73. Codec ID : S_HDMV/PGS

  74. Codec ID/Info : Picture based subtitle format used on BDs/HD-DVDs

  75. Duration : 1 h 25 min

  76. Bit rate : 27.0 kb/s

  77. Count of elements : 1518

  78. Stream size : 16.5 MiB (0%)

  79. Title : CHT

  80. Language : Chinese

  81. Default : No

  82. Forced : No


  83. Text #3

  84. ID : 5

  85. Format : PGS

  86. Muxing mode : zlib

  87. Codec ID : S_HDMV/PGS

  88. Codec ID/Info : Picture based subtitle format used on BDs/HD-DVDs

  89. Duration : 1 h 25 min

  90. Bit rate : 41.3 kb/s

  91. Count of elements : 1518

  92. Stream size : 25.3 MiB (0%)

  93. Title : CHS&ENG

  94. Language : Chinese

  95. Default : No

  96. Forced : No


  97. Text #4

  98. ID : 6

  99. Format : PGS

  100. Muxing mode : zlib

  101. Codec ID : S_HDMV/PGS

  102. Codec ID/Info : Picture based subtitle format used on BDs/HD-DVDs

  103. Duration : 1 h 25 min

  104. Bit rate : 41.8 kb/s

  105. Count of elements : 1518

  106. Stream size : 25.6 MiB (0%)

  107. Title : CHT&ENG

  108. Language : Chinese

  109. Default : No

  110. Forced : No


  111. Menu

  112. 00:00:00.000 : en:Chapter 01

  113. 00:08:04.609 : en:Chapter 02

  114. 00:14:55.478 : en:Chapter 03

  115. 00:23:53.766 : en:Chapter 04

  116. 00:31:04.279 : en:Chapter 05

  117. 00:39:59.522 : en:Chapter 06

  118. 00:48:36.914 : en:Chapter 07

  119. 00:56:07.823 : en:Chapter 08

  120. 01:00:56.361 : en:Chapter 09

  121. 01:07:33.049 : en:Chapter 10

  122. 01:19:39.650 : en:Chapter 11

  123. 01:24:52.004 : en:Chapter 12


文件下载


除非特别注明,本文『万德镇[双语字幕].Wander.2020.1080p.BluRay.DTS.x265-10bit 6.22GB』来源于互联网机器人自动抓取,非本站原创。 浮游电影网不对本文拥有版权,如有侵犯,请联系邮箱:fuyouu#yandex.com[#换成@]投诉。我们会在15个工作日内删除。 但烦请转载时请标明出处:“本文转载于『浮游电影网』,原文地址:https://5.189.174.242/14369.html

评论吧骚年!

发表你的见解   

昵称*

E-mail*(建议输入,以便收到博主回复的提示邮件)

验证码*

您可以使用eMule或eMule Mod(Windows)、aMule(Win、Linux、Mac)等软件下载eD2k链接。。
eMule收藏集(.emulecollection)文件是您选中的所有链接的列表文件。eMule可以直接下载它们。
按住SHIFT键选择可以选中多个选择框。
可用文件名和大小选择器来选择文件。
文件名选择器帮您根据文件名称或后缀来选择文件。不分大小写。
符号使用:
和:空格( )、+
不包含:-
或:|
转义:一对英文引号("");
匹配开头:^
匹配结尾:$
例如:
选中所有名称中包含有“eMule”或“0.49c”字眼,但不包含有“exe”字眼的:emule|0.49c -exe
选中所有名称的开头是“eMule”,结尾是“0.49c”的:^emule 0.49c$
选中所有名称中带有“eMule 0.49c”的(必须是“eMule 0.49c”,中间没有别的字符,不能是“eMule fake 0.49c”),需要转义:"emule 0.49c"
大小选择器帮您根据文件大小选择文件。