当前位置: 首页 >> 国产电影 >> 黑白迷宫[国粤语配音/中文字幕].Color.of.the.Game.2017.1080p.BluRay.x265.10bit.DTS.2Audio 5.64GB >> 正文

黑白迷宫[国粤语配音/中文字幕].Color.of.the.Game.2017.1080p.BluRay.x265.10bit.DTS.2Audio 5.64GB

2021年09月14日 15:24:22     电影发布:来源于网络     电影分类:国产电影     评论(0)    

黑白迷宫[国粤语配音/中文字幕].Color.of.the.Game.2017.1080p.BluRay.x265.10bit.DTS.2Audio 5.64GB 犯罪片 动作片 剧情片 国产电影  第1张

◎译 名 黑白迷宫 / Color of the Game

◎年 代 2017

◎产 地 中国大陆 / 中国香港

◎类 别 剧情 / 动作 / 犯罪

◎语 言 汉语普通话

◎上映日期 2017-09-01(中国大陆)

◎IMDb链接 https://www.imdb.com/title/tt7240562/

◎豆瓣评分 4.7/10 (10826人评价)

◎豆瓣链接 https://movie.douban.com/subject/26752106/

◎片 长 103分钟

◎导 演 阚家伟 Ka-Wai Kam (id:1360179)

◎编 剧 王晶 Jing Wong (id:1274331)

◎演 员 任达华 Simon Yam (id:1031194)

陈小春 Jordan Chan (id:1075760)

伍允龙 Philip Ng (id:1316267)

邱意浓 Sabrina Qiu (id:1335402)

张兆辉 Siu-Fai Cheung (id:1005843)

林雪 Suet Lam (id:1274279)

李子雄 Waise Lee (id:1037662)

桂晶晶 Jingjing Gui (id:1380081)

李宗彥 Jason Li (id:1411001)

陈彼得 Peter Chan (id:1411247)

王文成 Man Shing Wong (id:1419080)

叶项明 Xiangming Ye (id:1326944)

张荣祥 Cheung Wing-Cheung (id:1326361)

唐紫睿 Hazel Tong (id:1349072)

黄岚 Lam Wong (id:1449101)

王晶 Jing Wong (id:1274331)

龚宇 Yu Gong (id:1406734)

戴伟 Day Tai (id:1337786)

◎标 签 香港 / 犯罪 / 黑帮 / 动作 / 兄弟情义 / 2017 / 剧情 / 中国

◎简 介

社团大哥大华(任达华 饰)通过鸡包(林雪 饰)的安排前去执行非常棘手的社团任务,于是重新召集自己手下最信得过的兄弟阿春(陈小春 饰)、高天(伍允龙 饰)、叉烧(张兆辉 饰)、超人(梁烈唯)以及自己的女儿(邱意浓 饰)一同重出江湖,不料在执行任务时,却一次次失败,遭遇社团和警方的双重围剿,兄弟几人不得不拨开重重迷雾,抓出内鬼,找出真相……

  1. ##### MediaInfo ######

  2. General

  3. Unique ID : 201885546559032615097625442979596742772 (0x97E1BDF0274F631834A862F0F9643074)

  4. Complete name : Color.of.the.Game.2017.1080p.BluRay.x265.10bit.DTS.2Audio-10017@BBQDDQ.COM.mkv

  5. Format : Matroska

  6. Format version : Version 4

  7. File size : 5.63 GiB

  8. Duration : 1 h 43 min

  9. Overall bit rate : 7 761 kb/s

  10. Movie name : Colour of the Game

  11. Encoded date : UTC 2021-09-12 05:25:45

  12. Writing application : mkvmerge v61.0.0 ('So') 64-bit

  13. Writing library : libebml v1.4.2 + libmatroska v1.6.4

  14. Cover : Yes

  15. Attachments : cover.jpg / WenQuanWeiMiHei-1.ttf


  16. Video

  17. ID : 1

  18. Format : HEVC

  19. Format/Info : High Efficiency Video Coding

  20. Format profile : Main 10@L4@Main

  21. Codec ID : V_MPEGH/ISO/HEVC

  22. Duration : 1 h 43 min

  23. Bit rate : 4 721 kb/s

  24. Width : 1 920 pixels

  25. Height : 804 pixels

  26. Display aspect ratio : 2.40:1

  27. Frame rate mode : Constant

  28. Frame rate : 23.976 (24000/1001/53354) FPS

  29. Color space : YUV

  30. Chroma subsampling : 4:2:0

  31. Bit depth : 10 bits

  32. Bits/(Pixel*Frame) : 0.128

  33. Stream size : 3.43 GiB (61%)

  34. Writing library : x265 3.5+2-g2b25c9ba0+45:[Windows][GCC 10.2.0][64 bit] Yuuki 10bit+8bit+12bit

  35. Encoding settings : rc=crf / crf=17.0000 / qcomp=0.65 / qpstep=4 / stats-write=0 / stats-read=0 / no-lossless / no-cu-lossless / aq-mode=3 / aq-strength=0.80 / cbqpoffs=0 / crqpoffs=0 / ipratio=1.40 / pbratio=1.30 / psy-rd=2.00 / psy-rdoq=0.00 / deblock=0:0 / ref=6 / limit-refs=1 / no-limit-modes / bframes=8 / b-adapt=2 / bframe-bias=0 / b-pyramid / b-intra / weightp / weightb / min-keyint=24 / max-keyint=240 / rc-lookahead=24 / gop-lookahead=0 / NTMzNTQ=uuDQuD2mJt9fsCf / scenecut=40 / hist-scenecut=0 / radl=0 / max-cu-size=64 / min-cu-size=8 / me=3 / subme=7 / merange=48 / rdoq-level=0 / rd=4 / rdpenalty=0 / dynamic-rd=0.00 / no-rd-refine / ----- / cutree / sao / no-rect / no-amp / no-open-gop / wpp / no-pmode / pme / no-psnr / no-ssim / nr-intra=0 / nr-inter=0 / no-constrained-intra / no-strong-intra-smoothing / max-tu-size=32 / tu-inter-depth=1 / tu-intra-depth=1 / limit-tu=0 / qg-size=32 / qpmax=69 / qpmin=0 / ----- / cpuid=533541111039 / frame-threads=4 / numa-pools=+ / log-level=2 / input-csp=1 / input-res=1920x804 / interlace=0 / level-idc=0 / high-tier=1 / uhd-bd=0 / no-allow-non-conformance / no-repeat-headers / aud / no-hrd / info / hash=0 / no-temporal-layers / lookahead-slices=0 / no-splice / no-intra-refresh / no-ssim-rd / signhide / no-tskip / max-merge=3 / temporal-mvp / no-frame-dup / no-hme / no-analyze-src-pics / no-sao-non-deblock / selective-sao=4 / early-skip / rskip / no-fast-intra / no-tskip-fast / no-splitrd-skip / zone-count=0 / no-strict-cbr / no-rc-grain / no-const-vbv / sar=0 / overscan=0 / videoformat=5 / range=0 / colorprim=2 / transfer=2 / colormatrix=2 / chromaloc=0 / display-window=0 / cll=0,0 / min-luma=0 / max-luma=1023 / log2-max-poc-lsb=8 / vui-timing-info / vui-hrd-info / slices=1 / no-opt-qp-pps / no-opt-ref-list-length-pps / no-multi-pass-opt-rps / scenecut-bias=0.05 / hist-threshold=0.03 / no-opt-cu-delta-qp / no-aq-motion / no-hdr10 / no-hdr10-opt / no-dhdr10-opt / no-idr-recovery-sei / analysis-reuse-level=0 / analysis-save-reuse-level=0 / analysis-load-reuse-level=0 / scale-factor=0 / refine-intra=0 / refine-inter=0 / refine-mv=1 / refine-ctu-distortion=0 / no-limit-sao / ctu-info=0 / no-lowpass-dct / refine-analysis-type=0 / copy-pic=1 / max-ausize-factor=1.0 / no-dynamic-refine / no-single-sei / no-hevc-aq / no-svt / no-field / qp-adaptation-range=1.00 / scenecut-aware-qp=0conformance-window-offsets / right=0 / bottom=0 / NTMzNTQ= / decoder-max-rate=0 / no-vbv-live-multi-pass

  36. Default : Yes

  37. Forced : No


  38. Audio #1

  39. ID : 2

  40. Format : DTS

  41. Format/Info : Digital Theater Systems

  42. Codec ID : A_DTS

  43. Duration : 1 h 43 min

  44. Bit rate mode : Constant

  45. Bit rate : 1 510 kb/s

  46. Channel(s) : 6 channels

  47. Channel layout : C L R Ls Rs LFE

  48. Sampling rate : 48.0 kHz

  49. Frame rate : 93.750 FPS (512 SPF)

  50. Bit depth : 24 bits

  51. Compression mode : Lossy

  52. Stream size : 1.10 GiB (19%)

  53. Title : Mandarin

  54. Language : Chinese

  55. Default : Yes

  56. Forced : No


  57. Audio #2

  58. ID : 3

  59. Format : DTS

  60. Format/Info : Digital Theater Systems

  61. Codec ID : A_DTS

  62. Duration : 1 h 43 min

  63. Bit rate mode : Constant

  64. Bit rate : 1 510 kb/s

  65. Channel(s) : 6 channels

  66. Channel layout : C L R Ls Rs LFE

  67. Sampling rate : 48.0 kHz

  68. Frame rate : 93.750 FPS (512 SPF)

  69. Bit depth : 24 bits

  70. Compression mode : Lossy

  71. Stream size : 1.10 GiB (19%)

  72. Title : Cantonese

  73. Language : Chinese

  74. Default : No

  75. Forced : No


  76. Text #1

  77. ID : 4

  78. Format : ASS

  79. Codec ID : S_TEXT/ASS

  80. Codec ID/Info : Advanced Sub Station Alpha

  81. Duration : 1 h 39 min

  82. Bit rate : 77 b/s

  83. Count of elements : 1318

  84. Compression mode : Lossless

  85. Stream size : 56.7 KiB (0%)

  86. Title : chs

  87. Language : Chinese

  88. Default : Yes

  89. Forced : No


  90. Text #2

  91. ID : 5

  92. Format : ASS

  93. Codec ID : S_TEXT/ASS

  94. Codec ID/Info : Advanced Sub Station Alpha

  95. Duration : 1 h 39 min

  96. Bit rate : 76 b/s

  97. Count of elements : 1313

  98. Compression mode : Lossless

  99. Stream size : 56.0 KiB (0%)

  100. Title : cht

  101. Language : Chinese

  102. Default : No

  103. Forced : No


  104. Text #3

  105. ID : 6

  106. ID in the original source medium : 4610 (0x1202)

  107. Format : PGS

  108. Muxing mode : zlib

  109. Codec ID : S_HDMV/PGS

  110. Codec ID/Info : Picture based subtitle format used on BDs/HD-DVDs

  111. Duration : 1 h 39 min

  112. Bit rate : 37.9 kb/s

  113. Count of elements : 2240

  114. Stream size : 27.1 MiB (0%)

  115. Title : eng

  116. Language : English

  117. Default : No

  118. Forced : No

  119. Original source medium : Blu-ray


  120. Menu

  121. 00:00:00.000 : Chapter 01

  122. 00:08:49.237 : Chapter 02

  123. 00:18:02.289 : Chapter 03

  124. 00:25:12.135 : Chapter 04

  125. 00:35:52.900 : Chapter 05

  126. 00:41:39.830 : Chapter 06

  127. 00:50:30.902 : Chapter 07

  128. 01:02:53.394 : Chapter 08

  129. 01:12:26.216 : Chapter 09

  130. 01:18:44.052 : Chapter 10

  131. 01:25:19.864 : Chapter 11

  132. 01:36:03.007 : Chapter 12


文件下载


除非特别注明,本文『黑白迷宫[国粤语配音/中文字幕].Color.of.the.Game.2017.1080p.BluRay.x265.10bit.DTS.2Audio 5.64GB』来源于互联网机器人自动抓取,非本站原创。 浮游电影网不对本文拥有版权,如有侵犯,请联系邮箱:fuyouu#yandex.com[#换成@]投诉。我们会在15个工作日内删除。 但烦请转载时请标明出处:“本文转载于『浮游电影网』,原文地址:https://www.fuyouu.com/14367.html

评论吧骚年!

发表你的见解   

昵称*

E-mail*(建议输入,以便收到博主回复的提示邮件)

验证码*

您可以使用eMule或eMule Mod(Windows)、aMule(Win、Linux、Mac)等软件下载eD2k链接。。
eMule收藏集(.emulecollection)文件是您选中的所有链接的列表文件。eMule可以直接下载它们。
按住SHIFT键选择可以选中多个选择框。
可用文件名和大小选择器来选择文件。
文件名选择器帮您根据文件名称或后缀来选择文件。不分大小写。
符号使用:
和:空格( )、+
不包含:-
或:|
转义:一对英文引号("");
匹配开头:^
匹配结尾:$
例如:
选中所有名称中包含有“eMule”或“0.49c”字眼,但不包含有“exe”字眼的:emule|0.49c -exe
选中所有名称的开头是“eMule”,结尾是“0.49c”的:^emule 0.49c$
选中所有名称中带有“eMule 0.49c”的(必须是“eMule 0.49c”,中间没有别的字符,不能是“eMule fake 0.49c”),需要转义:"emule 0.49c"
大小选择器帮您根据文件大小选择文件。