当前位置: 首页 >> 欧美电影 >> 别回头[双语字幕].Dont.Look.Back.1967.1080p.BluRay.DD2.0.x265-10bit 9.94GB >> 正文

别回头[双语字幕].Dont.Look.Back.1967.1080p.BluRay.DD2.0.x265-10bit 9.94GB

2021年09月14日 15:23:11     电影发布:来源于网络     电影分类:欧美电影     评论(0)    

别回头[双语字幕].Dont.Look.Back.1967.1080p.BluRay.DD2.0.x265 10bit 9.94GB 音乐片 纪录片 欧美电影  第1张

◎译 名 别回头

◎片 名 Dont Look Back

◎年 代 1967

◎产 地 美国

◎类 别 纪录片 / 音乐

◎语 言 英语

◎上映日期 1967

◎IMDb链接 https://www.imdb.com/title/tt0061589/

◎豆瓣评分 8.6/10 (1807人评价)

◎豆瓣链接 https://movie.douban.com/subject/1305223/

◎片 长 96分钟

◎导 演 彭尼贝克 D.A. Pennebaker (id:1012618)

◎编 剧 彭尼贝克 D.A. Pennebaker (id:1012618)

◎演 员 鲍勃·迪伦 Bob Dylan (id:1018072)

Albert Grossman Albert Grossman (id:1021432)

Bob Neuwirth Bob Neuwirth (id:1019513)

琼·贝兹 Joan Baez (id:1055098)

艾伦·普莱斯 Alan Price (id:1001085)

Tito Burns Tito Burns (id:1067511)

多诺万 Donovan (id:1086679)

戴若·亚当斯 Derroll Adams (id:1056997)

艾伦·金斯堡 Allen Ginsberg (id:1018553)

John Mayall John Mayall (id:1120843)

Brian Pendleton (id:1230624)

玛丽安娜·菲斯福尔 Marianne Faithfull (id:1014124)

Albert Grossman Albert Grossman (id:1021432)

艾德·艾姆许维勒 Ed Emshwiller (id:1006492)

彭尼贝克 D.A. Pennebaker (id:1012618)

彭尼贝克 D.A. Pennebaker (id:1012618)

◎标 签 纪录片 / BobDylan / 音乐 / 美国 / 摇滚 / 1967 / Documentary / 传记

◎简 介

这部纪录片是对鲍勃迪伦1965年英国巡演的忠实记录,导演彭内贝克用影像清晰的说明那时的鲍勃迪伦与披头士是多么的不同。与同时期的《苦难日之夜》相比,《别回头》更直接,深刻,对自己的拍摄对象也没有造星般的刻意吹捧,甚至还毫不掩饰的可以嘲讽,但是,再冷静的镜头都无法掩盖年轻迪伦的灿烂光芒,同现在的老迪伦相比,年轻的他无与伦比的傲慢,机智,激情洋溢,而其中一段以垮掉派代表艾伦金斯堡为背景的开场更是弥足珍贵。

  1. ##### MediaInfo ######

  2. General

  3. Unique ID : 334738037899938726107729025038003204166 (0xFBD433796F35E8B536E2C1C70917F046)

  4. Complete name : Dont.Look.Back.1967.1080p.BluRay.DD2.0.x265-10bit-10007@BBQDDQ.COM.mkv

  5. Format : Matroska

  6. Format version : Version 4

  7. File size : 9.94 GiB

  8. Duration : 1 h 36 min

  9. Overall bit rate : 14.8 Mb/s

  10. Movie name : Dont Look Back 1967 1080p BluRay DD2.0 x265-10bit-10007@BBQDDQ.COM

  11. Encoded date : UTC 2021-09-10 00:37:03

  12. Writing application : mkvmerge v38.0.0 ('The Silent Type') 64-bit

  13. Writing library : libebml v1.3.9 + libmatroska v1.5.2


  14. Video

  15. ID : 1

  16. Format : HEVC

  17. Format/Info : High Efficiency Video Coding

  18. Format profile : Main 10@L5.1@High

  19. Codec ID : V_MPEGH/ISO/HEVC

  20. Duration : 1 h 36 min

  21. Bit rate : 14.0 Mb/s

  22. Width : 1 920 pixels

  23. Height : 1 080 pixels

  24. Display aspect ratio : 16:9

  25. Frame rate mode : Constant

  26. Frame rate : 23.976 (24000/1001/53354) FPS

  27. Color space : YUV

  28. Chroma subsampling : 4:2:0

  29. Bit depth : 10 bits

  30. Bits/(Pixel*Frame) : 0.282

  31. Stream size : 9.43 GiB (95%)

  32. Title : @HDSky

  33. Writing library : x265 - H.265/HEVC codec

  34. Default : Yes

  35. Forced : No


  36. Audio

  37. ID : 2

  38. Format : AC-3

  39. Format/Info : Audio Coding 3

  40. Commercial name : Dolby Digital

  41. Codec ID : A_AC3

  42. Duration : 1 h 36 min

  43. Bit rate mode : Constant

  44. Bit rate : 640 kb/s

  45. Channel(s) : 1 channel

  46. Channel layout : C

  47. Sampling rate : 48.0 kHz

  48. Frame rate : 31.250 FPS (1536 SPF)

  49. Compression mode : Lossy

  50. Stream size : 441 MiB (4%)

  51. Title : English

  52. Language : English

  53. Service kind : Complete Main

  54. Default : Yes

  55. Forced : No


  56. Text #1

  57. ID : 3

  58. Format : PGS

  59. Muxing mode : zlib

  60. Codec ID : S_HDMV/PGS

  61. Codec ID/Info : Picture based subtitle format used on BDs/HD-DVDs

  62. Duration : 1 h 35 min

  63. Bit rate : 40.7 kb/s

  64. Count of elements : 2411

  65. Stream size : 27.7 MiB (0%)

  66. Title : CHS

  67. Language : Chinese

  68. Default : Yes

  69. Forced : No


  70. Text #2

  71. ID : 4

  72. Format : PGS

  73. Muxing mode : zlib

  74. Codec ID : S_HDMV/PGS

  75. Codec ID/Info : Picture based subtitle format used on BDs/HD-DVDs

  76. Duration : 1 h 35 min

  77. Bit rate : 41.5 kb/s

  78. Count of elements : 2411

  79. Stream size : 28.3 MiB (0%)

  80. Title : CHT

  81. Language : Chinese

  82. Default : No

  83. Forced : No


  84. Text #3

  85. ID : 5

  86. Format : PGS

  87. Muxing mode : zlib

  88. Codec ID : S_HDMV/PGS

  89. Codec ID/Info : Picture based subtitle format used on BDs/HD-DVDs

  90. Duration : 1 h 35 min

  91. Bit rate : 61.9 kb/s

  92. Count of elements : 2411

  93. Stream size : 42.2 MiB (0%)

  94. Title : CHS&ENG

  95. Language : Chinese

  96. Default : No

  97. Forced : No


  98. Text #4

  99. ID : 6

  100. Format : PGS

  101. Muxing mode : zlib

  102. Codec ID : S_HDMV/PGS

  103. Codec ID/Info : Picture based subtitle format used on BDs/HD-DVDs

  104. Duration : 1 h 35 min

  105. Bit rate : 62.7 kb/s

  106. Count of elements : 2411

  107. Stream size : 42.8 MiB (0%)

  108. Title : CHT&ENG

  109. Language : Chinese

  110. Default : No

  111. Forced : No


  112. Menu

  113. 00:00:00.000 : en:Chapter 01

  114. 00:02:37.115 : en:Chapter 02

  115. 00:05:40.173 : en:Chapter 03

  116. 00:09:17.140 : en:Chapter 04

  117. 00:14:00.840 : en:Chapter 05

  118. 00:15:39.480 : en:Chapter 06

  119. 00:20:12.420 : en:Chapter 07

  120. 00:24:58.539 : en:Chapter 08

  121. 00:30:05.929 : en:Chapter 09

  122. 00:34:44.207 : en:Chapter 10

  123. 00:39:58.021 : en:Chapter 11

  124. 00:46:12.603 : en:Chapter 12

  125. 00:48:28.948 : en:Chapter 13

  126. 00:56:44.901 : en:Chapter 14

  127. 00:58:21.289 : en:Chapter 15

  128. 01:01:58.131 : en:Chapter 16

  129. 01:05:10.323 : en:Chapter 17

  130. 01:08:27.228 : en:Chapter 18

  131. 01:13:24.817 : en:Chapter 19

  132. 01:16:55.486 : en:Chapter 20

  133. 01:23:24.082 : en:Chapter 21

  134. 01:34:07.976 : en:Chapter 22


文件下载


除非特别注明,本文『别回头[双语字幕].Dont.Look.Back.1967.1080p.BluRay.DD2.0.x265-10bit 9.94GB』来源于互联网机器人自动抓取,非本站原创。 浮游电影网不对本文拥有版权,如有侵犯,请联系邮箱:fuyouu#yandex.com[#换成@]投诉。我们会在15个工作日内删除。 但烦请转载时请标明出处:“本文转载于『浮游电影网』,原文地址:https://www.fuyouu.com/14366.html

评论吧骚年!

发表你的见解   

昵称*

E-mail*(建议输入,以便收到博主回复的提示邮件)

验证码*

您可以使用eMule或eMule Mod(Windows)、aMule(Win、Linux、Mac)等软件下载eD2k链接。。
eMule收藏集(.emulecollection)文件是您选中的所有链接的列表文件。eMule可以直接下载它们。
按住SHIFT键选择可以选中多个选择框。
可用文件名和大小选择器来选择文件。
文件名选择器帮您根据文件名称或后缀来选择文件。不分大小写。
符号使用:
和:空格( )、+
不包含:-
或:|
转义:一对英文引号("");
匹配开头:^
匹配结尾:$
例如:
选中所有名称中包含有“eMule”或“0.49c”字眼,但不包含有“exe”字眼的:emule|0.49c -exe
选中所有名称的开头是“eMule”,结尾是“0.49c”的:^emule 0.49c$
选中所有名称中带有“eMule 0.49c”的(必须是“eMule 0.49c”,中间没有别的字符,不能是“eMule fake 0.49c”),需要转义:"emule 0.49c"
大小选择器帮您根据文件大小选择文件。