当前位置: 首页 >> 欧美电影 >> 特种空勤团:红色通缉令[中文字幕].S.A.S.Red.Notice.2021.1080p.BluRay.x265.10bit.DTS 7.17GB >> 正文

特种空勤团:红色通缉令[中文字幕].S.A.S.Red.Notice.2021.1080p.BluRay.x265.10bit.DTS 7.17GB

2021年09月14日 15:22:11     电影发布:来源于网络     电影分类:欧美电影     评论(0)    

特种空勤团:红色通缉令[中文字幕].S.A.S.Red.Notice.2021.1080p.BluRay.x265.10bit.DTS 7.17GB 犯罪片 动作片 欧美电影  第1张

◎译 名 特种空勤团:红色通缉令 / SAS:红色通知 / SAS:黑天鹅崛起 / SAS: Rise of the Black Swan

◎片 名 SAS: Red Notice

◎年 代 2021

◎产 地 英国 / 匈牙利 / 荷兰 / 瑞士

◎类 别 动作 / 犯罪

◎语 言 英语

◎上映日期 2021-03-12(英国)

◎IMDb链接 https://www.imdb.com/title/tt4479380/

◎豆瓣评分 5.4/10 (1304人评价)

◎豆瓣链接 https://movie.douban.com/subject/26322998/

◎片 长 124分钟

◎导 演 马格努斯·马滕斯 Magnus Martens (id:1046460)

尼克·拉夫 Nick Love (id:1014209)

◎编 剧 Andy McNab Andy McNab (id:1014602)

◎演 员 萨姆·修汉 Sam Heughan (id:1182341)

鲁比·罗丝 Ruby Rose (id:1344655)

安迪·瑟金斯 Andy Serkis (id:1002708)

汉娜·乔恩-卡门 Hannah John-Kamen (id:1350528)

汤姆·霍珀 Tom Hopper (id:1315896)

诺埃尔·克拉克 Noel Clarke (id:1036446)

汤姆·威尔金森 Tom Wilkinson (id:1036397)

欧文·约曼 Owain Yeoman (id:1009342)

雷·潘莎基 Ray Panthaki (id:1005127)

安妮·雷德 Anne Reid (id:1142609)

陆思敬 Jing Lusi (id:1246604)

萨拉·温特 Sarah Winter (id:1359707)

理查德·麦凯布 Richard McCabe (id:1355868)

道格拉斯·瑞斯 Douglas Reith (id:1437850)

戴兰·史密斯 Dylan Smith (id:1365755)

卡罗琳·博尔顿 Caroline Boulton (id:1367467)

阿提拉·阿帕 Attila árpa (id:1058673)

蒂姆·费林汉姆 Tim Fellingham (id:1444778)

泰·赫尔利 Ty Hurley (id:1369268)

马丁·安格鲍尔 Martin Angerbauer (id:1378300)

罗德里克·希尔 Roderick Hill (id:1367469)

巴尔·瓦斯维尔斯 Balázs Veres (id:1449233)

◎标 签 动作 / 英国 / 犯罪 / 2021 / 电影 / B欧洲 / 荷兰 / 2020

◎简 介

一支由拉兹洛·安东诺夫领导的训练有素的罪犯组成的小部队在英吉利海峡深处劫持了“欧洲之星”。

  1. ##### MediaInfo ######

  2. General

  3. Unique ID : 200704404337641231997705600120311385987 (0x96FE432166F49E75F88C27A380760F83)

  4. Complete name : S.A.S..Red.Notice.2021.1080p.BluRay.x265.10bit.DTS-10017@BBQDDQ.COM.mkv

  5. Format : Matroska

  6. Format version : Version 4

  7. File size : 7.17 GiB

  8. Duration : 2 h 3 min

  9. Overall bit rate : 8 297 kb/s

  10. Movie name : S.A.S. Red Notice 2021

  11. Encoded date : UTC 2021-09-11 01:57:56

  12. Writing application : mkvmerge v61.0.0 ('So') 64-bit

  13. Writing library : libebml v1.4.2 + libmatroska v1.6.4

  14. Cover : Yes

  15. Attachments : cover.jpg


  16. Video

  17. ID : 1

  18. Format : HEVC

  19. Format/Info : High Efficiency Video Coding

  20. Format profile : Main 10@L4@Main

  21. Codec ID : V_MPEGH/ISO/HEVC

  22. Duration : 2 h 3 min

  23. Bit rate : 6 728 kb/s

  24. Width : 1 920 pixels

  25. Height : 800 pixels

  26. Display aspect ratio : 2.40:1

  27. Frame rate mode : Constant

  28. Frame rate : 23.976 (24000/1001/53354) FPS

  29. Color space : YUV

  30. Chroma subsampling : 4:2:0

  31. Bit depth : 10 bits

  32. Bits/(Pixel*Frame) : 0.183

  33. Stream size : 5.82 GiB (81%)

  34. Writing library : x265 3.5+2-g2b25c9ba0+45:[Windows][GCC 10.2.0][64 bit] Yuuki 10bit+8bit+12bit

  35. Encoding settings : rc=crf / crf=16.0000 / qcomp=0.60 / qpstep=4 / stats-write=0 / stats-read=0 / no-lossless / no-cu-lossless / aq-mode=3 / aq-strength=0.90 / cbqpoffs=0 / crqpoffs=0 / ipratio=1.40 / pbratio=1.30 / psy-rd=2.00 / psy-rdoq=0.00 / deblock=0:0 / ref=6 / limit-refs=1 / no-limit-modes / bframes=8 / b-adapt=2 / bframe-bias=0 / b-pyramid / b-intra / weightp / weightb / min-keyint=24 / max-keyint=240 / rc-lookahead=24 / gop-lookahead=0 / NTMzNTQ=uuDQuD2mJt9fsCf / scenecut=40 / hist-scenecut=0 / radl=0 / max-cu-size=64 / min-cu-size=8 / me=3 / subme=7 / merange=48 / rdoq-level=0 / rd=4 / rdpenalty=0 / dynamic-rd=0.00 / no-rd-refine / ----- / cutree / sao / no-rect / no-amp / no-open-gop / wpp / no-pmode / no-pme / no-psnr / no-ssim / nr-intra=0 / nr-inter=0 / no-constrained-intra / no-strong-intra-smoothing / max-tu-size=32 / tu-inter-depth=1 / tu-intra-depth=1 / limit-tu=0 / qg-size=32 / qpmax=69 / qpmin=0 / ----- / cpuid=533541111039 / frame-threads=4 / numa-pools=+ / log-level=2 / input-csp=1 / input-res=1920x800 / interlace=0 / level-idc=0 / high-tier=1 / uhd-bd=0 / no-allow-non-conformance / repeat-headers / aud / no-hrd / info / hash=0 / no-temporal-layers / lookahead-slices=0 / no-splice / no-intra-refresh / no-ssim-rd / signhide / no-tskip / max-merge=3 / temporal-mvp / no-frame-dup / no-hme / no-analyze-src-pics / no-sao-non-deblock / selective-sao=4 / early-skip / rskip / no-fast-intra / no-tskip-fast / no-splitrd-skip / zone-count=0 / no-strict-cbr / no-rc-grain / no-const-vbv / sar=0 / overscan=0 / videoformat=5 / range=0 / colorprim=2 / transfer=2 / colormatrix=2 / chromaloc=0 / display-window=0 / cll=0,0 / min-luma=0 / max-luma=1023 / log2-max-poc-lsb=8 / vui-timing-info / vui-hrd-info / slices=1 / no-opt-qp-pps / no-opt-ref-list-length-pps / no-multi-pass-opt-rps / scenecut-bias=0.05 / hist-threshold=0.03 / no-opt-cu-delta-qp / no-aq-motion / no-hdr10 / no-hdr10-opt / no-dhdr10-opt / no-idr-recovery-sei / analysis-reuse-level=0 / analysis-save-reuse-level=0 / analysis-load-reuse-level=0 / scale-factor=0 / refine-intra=0 / refine-inter=0 / refine-mv=1 / refine-ctu-distortion=0 / no-limit-sao / ctu-info=0 / no-lowpass-dct / refine-analysis-type=0 / copy-pic=1 / max-ausize-factor=1.0 / no-dynamic-refine / no-single-sei / no-hevc-aq / no-svt / no-field / qp-adaptation-range=1.00 / scenecut-aware-qp=0conformance-window-offsets / right=0 / bottom=0 / NTMzNTQ= / decoder-max-rate=0 / no-vbv-live-multi-pass

  36. Default : Yes

  37. Forced : No


  38. Audio

  39. ID : 2

  40. ID in the original source medium : 4353 (0x1101)

  41. Format : DTS

  42. Format/Info : Digital Theater Systems

  43. Codec ID : A_DTS

  44. Duration : 2 h 3 min

  45. Bit rate mode : Constant

  46. Bit rate : 1 509 kb/s

  47. Channel(s) : 6 channels

  48. Channel layout : C L R Ls Rs LFE

  49. Sampling rate : 48.0 kHz

  50. Frame rate : 93.750 FPS (512 SPF)

  51. Bit depth : 24 bits

  52. Compression mode : Lossy

  53. Stream size : 1.30 GiB (18%)

  54. Language : English

  55. Default : Yes

  56. Forced : No

  57. Original source medium : Blu-ray


  58. Text #1

  59. ID : 3

  60. ID in the original source medium : 4610 (0x1202)

  61. Format : PGS

  62. Muxing mode : zlib

  63. Codec ID : S_HDMV/PGS

  64. Codec ID/Info : Picture based subtitle format used on BDs/HD-DVDs

  65. Duration : 1 h 57 min

  66. Bit rate : 39.5 kb/s

  67. Count of elements : 2509

  68. Stream size : 33.3 MiB (0%)

  69. Title : chs&eng

  70. Language : Chinese

  71. Default : No

  72. Forced : No

  73. Original source medium : Blu-ray


  74. Text #2

  75. ID : 4

  76. ID in the original source medium : 4611 (0x1203)

  77. Format : PGS

  78. Muxing mode : zlib

  79. Codec ID : S_HDMV/PGS

  80. Codec ID/Info : Picture based subtitle format used on BDs/HD-DVDs

  81. Duration : 1 h 57 min

  82. Bit rate : 39.9 kb/s

  83. Count of elements : 2509

  84. Stream size : 33.6 MiB (0%)

  85. Title : cht&eng

  86. Language : Chinese

  87. Default : No

  88. Forced : No

  89. Original source medium : Blu-ray


  90. Text #3

  91. ID : 5

  92. ID in the original source medium : 4612 (0x1204)

  93. Format : PGS

  94. Muxing mode : zlib

  95. Codec ID : S_HDMV/PGS

  96. Codec ID/Info : Picture based subtitle format used on BDs/HD-DVDs

  97. Duration : 1 h 57 min

  98. Bit rate : 23.7 kb/s

  99. Count of elements : 2509

  100. Stream size : 20.0 MiB (0%)

  101. Title : chs

  102. Language : Chinese

  103. Default : No

  104. Forced : No

  105. Original source medium : Blu-ray


  106. Text #4

  107. ID : 6

  108. ID in the original source medium : 4613 (0x1205)

  109. Format : PGS

  110. Muxing mode : zlib

  111. Codec ID : S_HDMV/PGS

  112. Codec ID/Info : Picture based subtitle format used on BDs/HD-DVDs

  113. Duration : 1 h 57 min

  114. Bit rate : 24.1 kb/s

  115. Count of elements : 2509

  116. Stream size : 20.3 MiB (0%)

  117. Title : cht

  118. Language : Chinese

  119. Default : No

  120. Forced : No

  121. Original source medium : Blu-ray


  122. Menu

  123. 00:00:00.000 : Chapter 01

  124. 00:06:55.540 : Chapter 02

  125. 00:18:21.058 : Chapter 03

  126. 00:30:30.995 : Chapter 04

  127. 00:39:43.589 : Chapter 05

  128. 00:50:10.507 : Chapter 06

  129. 01:00:45.391 : Chapter 07

  130. 01:11:57.730 : Chapter 08

  131. 01:21:56.912 : Chapter 09

  132. 01:34:29.163 : Chapter 10

  133. 01:49:21.930 : Chapter 11

  134. 01:58:24.847 : Chapter 12


文件下载


除非特别注明,本文『特种空勤团:红色通缉令[中文字幕].S.A.S.Red.Notice.2021.1080p.BluRay.x265.10bit.DTS 7.17GB』来源于互联网机器人自动抓取,非本站原创。 浮游电影网不对本文拥有版权,如有侵犯,请联系邮箱:fuyouu#yandex.com[#换成@]投诉。我们会在15个工作日内删除。 但烦请转载时请标明出处:“本文转载于『浮游电影网』,原文地址:https://www.fuyouu.com/14365.html

评论吧骚年!

发表你的见解   

昵称*

E-mail*(建议输入,以便收到博主回复的提示邮件)

验证码*

您可以使用eMule或eMule Mod(Windows)、aMule(Win、Linux、Mac)等软件下载eD2k链接。。
eMule收藏集(.emulecollection)文件是您选中的所有链接的列表文件。eMule可以直接下载它们。
按住SHIFT键选择可以选中多个选择框。
可用文件名和大小选择器来选择文件。
文件名选择器帮您根据文件名称或后缀来选择文件。不分大小写。
符号使用:
和:空格( )、+
不包含:-
或:|
转义:一对英文引号("");
匹配开头:^
匹配结尾:$
例如:
选中所有名称中包含有“eMule”或“0.49c”字眼,但不包含有“exe”字眼的:emule|0.49c -exe
选中所有名称的开头是“eMule”,结尾是“0.49c”的:^emule 0.49c$
选中所有名称中带有“eMule 0.49c”的(必须是“eMule 0.49c”,中间没有别的字符,不能是“eMule fake 0.49c”),需要转义:"emule 0.49c"
大小选择器帮您根据文件大小选择文件。