当前位置: 首页 >> 海外电影 >> 靓汤[国语配音/中文字幕].Lang.Tong.2015.1080p.WEB-DL.x264.DDP2.0 2.31GB >> 正文

靓汤[国语配音/中文字幕].Lang.Tong.2015.1080p.WEB-DL.x264.DDP2.0 2.31GB

2021年09月14日 15:18:54     电影发布:来源于网络     电影分类:海外电影     评论(0)    

靓汤[国语配音/中文字幕].Lang.Tong.2015.1080p.WEB DL.x264.DDP2.0 2.31GB 情色 惊悚片 海外电影  第1张

◎译 名 靓汤 / 人肉肉骨茶

◎片 名 Lang Tong

◎年 代 2015

◎产 地 新加坡 Singapore

◎类 别 惊悚 / 情色

◎语 言 汉语普通话

◎上映日期 2015-03-05

◎IMDb链接 https://www.imdb.com/title/tt6423578/

◎豆瓣评分 4.3/10 (212人评价)

◎豆瓣链接 https://movie.douban.com/subject/26339747/

◎片 长 83 分钟

◎导 演 罗胜 Sam Loh (id:1379881)

◎编 剧 罗胜 Sam Loh (id:1379881)

◎演 员 叶思伶 Angeline Yap (id:1429796)

曾惟芸 Vivienne Tseng (id:1429798)

吴秋仪 Esther Goh (id:1429795)

佐藤和生 Kazuo Sato (id:1429811)

彭俐敏 Adeline Pang (id:1429816)

陈益鸣 Alan Tan (id:1429817)

刘峻宏 William Lawandi (id:1429820)

池素宝 Vincent Tee (id:1429824)

佐藤和生 Kazuo Sato (id:1429811)

◎标 签 新加坡 / 恐怖 / 情色 / 惊悚 / Sex / sex / 吸血鬼 / 电影

◎简 介

Zack是一傁矚g吃肉骨湯的愛情騙子,他認為煮肉骨湯的祕方,和騙女人的方式是一樣的:「要選最上等的好肉、耐心烹調。」一碗可口美味的肉骨湯,隨時上桌。 麗玲和麗兒這對姐妹是Zack的新目標,他想一腳踏兩條船、求財騙色。但他萬萬沒想到,妹妹麗兒要求他把姐姐麗玲殺掉,一場前所未見的另類殺人手法,驚悚展開…

  1. ##### MediaInfo ######

  2. General

  3. Unique ID : 187737494375460919025621915101037061939 (0x8D3CED1C1C7859CCDF1D9C1172E7E733)

  4. Complete name : 靓汤.Lang.Tong.2015.1080p.WEB-DL.x264.DDP2.0-10006@BBQDDQ.COM.mkv

  5. Format : Matroska

  6. Format version : Version 4

  7. File size : 2.31 GiB

  8. Duration : 1 h 21 min

  9. Overall bit rate mode : Variable

  10. Overall bit rate : 4 040 kb/s

  11. Encoded date : UTC 2021-09-11 06:56:42

  12. Writing application : mkvmerge v61.0.0 ('So') 64-bit

  13. Writing library : libebml v1.4.2 + libmatroska v1.6.4


  14. Video

  15. ID : 1

  16. Format : AVC

  17. Format/Info : Advanced Video Codec

  18. Format profile : High@L4

  19. Format settings : CABAC / 4 Ref Frames

  20. Format settings, CABAC : Yes

  21. Format settings, Reference frames : 4 frames

  22. Codec ID : V_MPEG4/ISO/AVC

  23. Duration : 1 h 21 min

  24. Bit rate mode : Variable

  25. Bit rate : 3 910 kb/s

  26. Maximum bit rate : 20.0 Mb/s

  27. Width : 1 920 pixels

  28. Height : 1 080 pixels

  29. Display aspect ratio : 16:9

  30. Frame rate mode : Constant

  31. Frame rate : 25.000 FPS

  32. Color space : YUV

  33. Chroma subsampling : 4:2:0

  34. Bit depth : 8 bits

  35. Scan type : Progressive

  36. Bits/(Pixel*Frame) : 0.075

  37. Stream size : 2.23 GiB (97%)

  38. Writing library : x264 core 148 r2717 0d2410d

  39. Encoding settings : cabac=1 / ref=4 / deblock=1:0:0 / analyse=0x3:0x111 / me=umh / subme=10 / psy=1 / psy_rd=1.00:0.00 / mixed_ref=1 / me_range=120 / chroma_me=1 / trellis=2 / 8x8dct=1 / cqm=0 / deadzone=21,11 / fast_pskip=1 / chroma_qp_offset=-2 / threads=8 / lookahead_threads=2 / sliced_threads=0 / nr=0 / decimate=1 / interlaced=0 / NTMzNTQ= / bluray_compat=0 / stitchable=1 / constrained_intra=0 / bframes=16 / b_pyramid=2 / b_adapt=2 / b_bias=0 / direct=3 / weightb=1 / open_gop=0 / weightp=2 / keyint=250 / keyint_min=126 / scenecut=0 / intra_refresh=0 / rc_lookahead=250 / rc=crf / mbtree=1 / crf=16.0 / qcomp=0.50 / qpmin=6 / qpmax=51 / qpstep=4 / vbv_maxrate=20000 / vbv_bufsize=25000 / crf_max=0.0 / nal_hrd=vbr / filler=0 / NTMzNTQ=LmsMAP37EqsCpk / ip_ratio=1.40 / aq=1:0.80

  40. Default : Yes

  41. Forced : No


  42. Audio

  43. ID : 2

  44. Format : E-AC-3

  45. Format/Info : Enhanced AC-3

  46. Commercial name : Dolby Digital Plus

  47. Codec ID : A_EAC3

  48. Duration : 1 h 21 min

  49. Bit rate mode : Constant

  50. Bit rate : 128 kb/s

  51. Channel(s) : 2 channels

  52. Channel layout : L R

  53. Sampling rate : 48.0 kHz

  54. Frame rate : 31.250 FPS (1536 SPF)

  55. Compression mode : Lossy

  56. Stream size : 74.8 MiB (3%)

  57. Language : Chinese

  58. Service kind : Complete Main

  59. Default : Yes

  60. Forced : No


  61. Text #1

  62. ID : 3

  63. Format : UTF-8

  64. Codec ID : S_TEXT/UTF8

  65. Codec ID/Info : UTF-8 Plain Text

  66. Duration : 1 h 20 min

  67. Bit rate : 53 b/s

  68. Count of elements : 472

  69. Stream size : 31.6 KiB (0%)

  70. Language : English

  71. Default : Yes

  72. Forced : No


  73. Text #2

  74. ID : 4

  75. Format : UTF-8

  76. Codec ID : S_TEXT/UTF8

  77. Codec ID/Info : UTF-8 Plain Text

  78. Duration : 1 h 19 min

  79. Bit rate : 87 b/s

  80. Count of elements : 471

  81. Stream size : 51.2 KiB (0%)

  82. Title : 简体中文

  83. Language : Chinese

  84. Default : Yes

  85. Forced : No


  86. Text #3

  87. ID : 5

  88. Format : UTF-8

  89. Codec ID : S_TEXT/UTF8

  90. Codec ID/Info : UTF-8 Plain Text

  91. Duration : 1 h 20 min

  92. Bit rate : 89 b/s

  93. Count of elements : 469

  94. Stream size : 52.6 KiB (0%)

  95. Title : 繁体中文

  96. Language : Chinese

  97. Default : Yes

  98. Forced : No


文件下载


除非特别注明,本文『靓汤[国语配音/中文字幕].Lang.Tong.2015.1080p.WEB-DL.x264.DDP2.0 2.31GB』来源于互联网机器人自动抓取,非本站原创。 浮游电影网不对本文拥有版权,如有侵犯,请联系邮箱:fuyouu#yandex.com[#换成@]投诉。我们会在15个工作日内删除。 但烦请转载时请标明出处:“本文转载于『浮游电影网』,原文地址:https://www.fuyouu.com/14363.html

评论吧骚年!

发表你的见解   

昵称*

E-mail*(建议输入,以便收到博主回复的提示邮件)

验证码*

您可以使用eMule或eMule Mod(Windows)、aMule(Win、Linux、Mac)等软件下载eD2k链接。。
eMule收藏集(.emulecollection)文件是您选中的所有链接的列表文件。eMule可以直接下载它们。
按住SHIFT键选择可以选中多个选择框。
可用文件名和大小选择器来选择文件。
文件名选择器帮您根据文件名称或后缀来选择文件。不分大小写。
符号使用:
和:空格( )、+
不包含:-
或:|
转义:一对英文引号("");
匹配开头:^
匹配结尾:$
例如:
选中所有名称中包含有“eMule”或“0.49c”字眼,但不包含有“exe”字眼的:emule|0.49c -exe
选中所有名称的开头是“eMule”,结尾是“0.49c”的:^emule 0.49c$
选中所有名称中带有“eMule 0.49c”的(必须是“eMule 0.49c”,中间没有别的字符,不能是“eMule fake 0.49c”),需要转义:"emule 0.49c"
大小选择器帮您根据文件大小选择文件。