当前位置: 首页 >> 欧美电影 >> 匹诺曹[国语配音/中文字幕].Pinocchio.2019.1080p.WEB-DL.H264.DDP5.1.2Audio 2.10GB >> 正文

匹诺曹[国语配音/中文字幕].Pinocchio.2019.1080p.WEB-DL.H264.DDP5.1.2Audio 2.10GB

2021年09月14日 15:17:21     电影发布:来源于网络     电影分类:欧美电影     评论(0)    

匹诺曹[国语配音/中文字幕].Pinocchio.2019.1080p.WEB DL.H264.DDP5.1.2Audio 2.10GB 奇幻片 欧美电影  第1张

◎译 名 匹诺曹 / 皮诺丘的奇幻旅程(台) / 木偶奇遇记

◎片 名 Pinocchio

◎年 代 2019

◎产 地 意大利 / 法国 / 英国

◎类 别 奇幻

◎语 言 意大利语

◎上映日期 2021-06-01(中国大陆) / 2019-12-19(意大利)

◎IMDb链接 https://www.imdb.com/title/tt8333746/

◎豆瓣评分 6.2/10 (9879人评价)

◎豆瓣链接 https://movie.douban.com/subject/26886204/

◎片 长 124分钟

◎导 演 马提欧·加洛尼 Matteo Garrone (id:1028035)

◎编 剧 卡洛·科洛迪 Carlo Collodi (id:1037925)

马提欧·加洛尼 Matteo Garrone (id:1028035)

马西莫·切可里尼 Massimo Ceccherini (id:1019748)

◎演 员 费德里科·伊帕迪 Federico Ielapi (id:1419263)

罗伯托·贝尼尼 Roberto Benigni (id:1041004)

罗科·帕帕莱奥 Rocco Papaleo (id:1023596)

马西莫·切可里尼 Massimo Ceccherini (id:1019748)

玛丽恩·瓦科特 Marine Vacth (id:1328329)

吉吉·普罗耶蒂 Gigi Proietti (id:1041880)

阿利达·巴尔达里·卡拉布里亚 Alida Baldari Calabria (id:1401451)

阿莱西奥·迪·多梅尼卡尼奥 Alessio Di Domenicantonio (id:1419273)

达维德·马洛塔 Davide Marotta (id:1419272)

保罗·格拉齐西 Paolo Graziosi (id:1096851)

马西米利亚诺·加洛 Massimiliano Gallo (id:1378146)

詹弗兰科·加洛 Gianfranco Gallo (id:1394990)

特科·切里奥 Teco Celio (id:1384182)

尼诺?斯卡迪纳 Nino Scardina (id:1419274)

毛里齐奥·隆巴迪 Maurizio Lombardi (id:1409601)

纪尧姆·德洛内 Guillaume Delaunay (id:1356533)

吉格欧·莫拉 Gigio Morra (id:1357942)

马尔切洛·丰特 Marcello Fonte (id:1393496)

玛丽亚·皮亚·蒂莫 Maria Pia Timo (id:1449127)

西罗·佩特隆 Ciro Petrone (id:1238121)

芭芭拉·恩里奇 Barbara Enrichi (id:1083958)

马蒂尔达·德·安杰利斯 Matilda De Angelis (id:1360776)

马提欧·加洛尼 Matteo Garrone (id:1028035)

达里奥·马里安奈利 Dario Marianelli (id:1018392)

马西莫·坎蒂尼·帕里尼 Massimo Cantini Parrini (id:1452763)

◎标 签 童话 / 奇幻 / 意大利 / 温情 / 改编 / 2019 / 法国 / 英国

◎简 介

改编自经典童话《木偶奇遇记》,讲述老木匠(罗伯托·贝尼尼 Roberto Benigni 饰)雕刻的木偶机缘巧合下获得生命,被木匠当作自己的儿子,并取名“匹诺曹”(费德里科·伊帕迪 Federico Ielapi 饰)。木匠耐心地教导匹诺曹,可贪玩的匹诺曹却跑到马戏团看木偶戏,并因此开启了一段离家之旅。

◎获奖情况 (共17项)

第74届英国电影学院奖 (2021)

电影奖 最佳化妆/发型(提名)

第65届意大利大卫奖 (2020)

最佳影片(提名)

最佳导演(提名)

└──马提欧·加洛尼 (id:1028035)

最佳改编剧本(提名)

最佳女配角(提名)

└──阿利达·巴尔达里·卡拉布里亚 (id:1401451)

最佳男配角(提名)

└──罗伯托·贝尼尼 (id:1041004)

最佳摄影(提名)

最佳音乐(提名)

最佳美术设计

最佳服装设计

最佳化妆

最佳剪辑(提名)

最佳音效(提名)

最佳视觉效果

第25届美国艺术指导工会奖 (2021)

电影奖 最佳幻想电影艺术指导(提名)

└──德米特里·卡普瓦尼 (id:1280044)

第23届美国服装设计工会奖 (2021)

科幻/奇幻题材电影最佳服装设计(提名)

└──马西莫·坎蒂尼·帕里尼 (id:1452763)

第8届美国化妆及发型设计工会奖 (2021)

电影类最佳特效化妆

  1. ##### MediaInfo ######

  2. General

  3. Unique ID : 40423647046211728381778349425151539896 (0x1E694FACD1C0CE282780DA99FF1D7AB8)

  4. Complete name : 匹诺曹.Pinocchio.2019.1080p.WEB-DL.H264.DDP5.1.2Audio-10006@BBQDDQ.COM.mkv

  5. Format : Matroska

  6. Format version : Version 4

  7. File size : 2.09 GiB

  8. Duration : 1 h 59 min

  9. Overall bit rate : 2 504 kb/s

  10. Encoded date : UTC 2021-09-12 09:32:44

  11. Writing application : mkvmerge v51.0.0 ('I Wish') 64-bit

  12. Writing library : libebml v1.4.0 + libmatroska v1.6.2


  13. Video

  14. ID : 1

  15. Format : AVC

  16. Format/Info : Advanced Video Codec

  17. Format profile : High@L4

  18. Format settings : CABAC / 3 Ref Frames

  19. Format settings, CABAC : Yes

  20. Format settings, Reference frames : 3 frames

  21. Codec ID : V_MPEG4/ISO/AVC

  22. Duration : 1 h 59 min

  23. Bit rate : 1 800 kb/s

  24. Width : 1 920 pixels

  25. Height : 800 pixels

  26. Display aspect ratio : 2.40:1

  27. Frame rate mode : Constant

  28. Frame rate : 25.000 FPS

  29. Color space : YUV

  30. Chroma subsampling : 4:2:0

  31. Bit depth : 8 bits

  32. Scan type : Progressive

  33. Bits/(Pixel*Frame) : 0.047

  34. Stream size : 1.51 GiB (72%)

  35. Default : Yes

  36. Forced : No

  37. Color range : Limited

  38. Color primaries : BT.709

  39. Transfer characteristics : BT.709

  40. Matrix coefficients : BT.709


  41. Audio #1

  42. ID : 2

  43. Format : E-AC-3

  44. Format/Info : Enhanced AC-3

  45. Commercial name : Dolby Digital Plus

  46. Codec ID : A_EAC3

  47. Duration : 1 h 59 min

  48. Bit rate mode : Constant

  49. Bit rate : 256 kb/s

  50. Channel(s) : 6 channels

  51. Channel layout : L R C LFE Ls Rs

  52. Sampling rate : 48.0 kHz

  53. Frame rate : 31.250 FPS (1536 SPF)

  54. Compression mode : Lossy

  55. Stream size : 219 MiB (10%)

  56. Language : Italian

  57. Service kind : Complete Main

  58. Default : Yes

  59. Forced : No


  60. Audio #2

  61. ID : 3

  62. Format : E-AC-3

  63. Format/Info : Enhanced AC-3

  64. Commercial name : Dolby Digital Plus

  65. Codec ID : A_EAC3

  66. Duration : 1 h 59 min

  67. Bit rate mode : Constant

  68. Bit rate : 256 kb/s

  69. Channel(s) : 6 channels

  70. Channel layout : L R C LFE Ls Rs

  71. Sampling rate : 48.0 kHz

  72. Frame rate : 31.250 FPS (1536 SPF)

  73. Compression mode : Lossy

  74. Stream size : 219 MiB (10%)

  75. Language : Chinese

  76. Service kind : Complete Main

  77. Default : No

  78. Forced : No


  79. Audio #3

  80. ID : 4

  81. Format : AAC LC

  82. Format/Info : Advanced Audio Codec Low Complexity

  83. Codec ID : A_AAC-2

  84. Duration : 1 h 59 min

  85. Bit rate : 192 kb/s

  86. Channel(s) : 2 channels

  87. Channel layout : L R

  88. Sampling rate : 44.1 kHz

  89. Frame rate : 43.066 FPS (1024 SPF)

  90. Compression mode : Lossy

  91. Stream size : 162 MiB (8%)

  92. Language : Italian

  93. Default : No

  94. Forced : No


文件下载


除非特别注明,本文『匹诺曹[国语配音/中文字幕].Pinocchio.2019.1080p.WEB-DL.H264.DDP5.1.2Audio 2.10GB』来源于互联网机器人自动抓取,非本站原创。 浮游电影网不对本文拥有版权,如有侵犯,请联系邮箱:fuyouu#yandex.com[#换成@]投诉。我们会在15个工作日内删除。 但烦请转载时请标明出处:“本文转载于『浮游电影网』,原文地址:https://www.fuyouu.com/14362.html

评论吧骚年!

发表你的见解   

昵称*

E-mail*(建议输入,以便收到博主回复的提示邮件)

验证码*

您可以使用eMule或eMule Mod(Windows)、aMule(Win、Linux、Mac)等软件下载eD2k链接。。
eMule收藏集(.emulecollection)文件是您选中的所有链接的列表文件。eMule可以直接下载它们。
按住SHIFT键选择可以选中多个选择框。
可用文件名和大小选择器来选择文件。
文件名选择器帮您根据文件名称或后缀来选择文件。不分大小写。
符号使用:
和:空格( )、+
不包含:-
或:|
转义:一对英文引号("");
匹配开头:^
匹配结尾:$
例如:
选中所有名称中包含有“eMule”或“0.49c”字眼,但不包含有“exe”字眼的:emule|0.49c -exe
选中所有名称的开头是“eMule”,结尾是“0.49c”的:^emule 0.49c$
选中所有名称中带有“eMule 0.49c”的(必须是“eMule 0.49c”,中间没有别的字符,不能是“eMule fake 0.49c”),需要转义:"emule 0.49c"
大小选择器帮您根据文件大小选择文件。