当前位置: 首页 >> 日韩电影 >> 爱情人偶[中文字幕].Romance.Doll.2020.1080p.NF.WEB-DL.x264.DDP5.1 4.42GB >> 正文

爱情人偶[中文字幕].Romance.Doll.2020.1080p.NF.WEB-DL.x264.DDP5.1 4.42GB

2021年09月14日 15:16:15     电影发布:来源于网络     电影分类:日韩电影     评论(0)    

爱情人偶[中文字幕].Romance.Doll.2020.1080p.NF.WEB DL.x264.DDP5.1 4.42GB 爱情片 剧情片 日韩电影  第1张

◎译 名 爱情人偶 / 爱情人形(台) / 浪漫人偶 / Romance Doll / 恋之人形(港)

◎片 名 ロマンスドール

◎年 代 2020

◎产 地 日本

◎类 别 剧情 / 爱情

◎语 言 日语

◎上映日期 2020-01-24(日本)

◎IMDb链接 https://www.imdb.com/title/tt10914712/

◎豆瓣评分 6.3/10 (7741人评价)

◎豆瓣链接 https://movie.douban.com/subject/30446493/

◎片 长 123分钟

◎导 演 棚田由纪 Yuki Tanada (id:1319228)

◎编 剧 棚田由纪 Yuki Tanada (id:1319228)

◎演 员 高桥一生 Issey Takahashi (id:1275907)

苍井优 Yu Aoi (id:1018990)

古关安广 Kitar? (id:1111204)

渡边绘里 Eri Watanabe (id:1016983)

泷正则 Pierre Taki (id:1002495)

滨野谦太 Kenta Hamano (id:1316095)

三浦透子 Touko Miura (id:1333905)

大仓孝二 Koji Ookura (id:1011644)

◎标 签 日本 / 爱情 / 2020 / 剧情 / 温情 / 女性 / 人生 / 小说改编

◎简 介

影片改编自导演的同名小说,讲述的是制作充气娃娃的职人哲雄与其妻子园子的爱情故事:哲雄对园子一见钟情而结婚,他隐瞒着自己的真实工作普通过活,但却因过度热衷充气娃娃的制作而令夫妻关系产生危机。在这样的情况下,园子向哲雄坦白了心中怀揣着的秘密……

  1. ##### MediaInfo ######

  2. General

  3. Unique ID : 30877876385144850824581416919263771870 (0x173ADCD84388C91CD1446CD3FC3E7CDE)

  4. Complete name : 爱情人偶.Romance.Doll.2020.1080p.NF.WEB-DL.x264.DDP5.1-10006@BBQDDQ.COM.mkv

  5. Format : Matroska

  6. Format version : Version 4

  7. File size : 4.41 GiB

  8. Duration : 2 h 3 min

  9. Overall bit rate mode : Variable

  10. Overall bit rate : 5 100 kb/s

  11. Encoded date : UTC 2021-09-11 09:31:04

  12. Writing application : mkvmerge v61.0.0 ('So') 64-bit

  13. Writing library : libebml v1.4.2 + libmatroska v1.6.4


  14. Video

  15. ID : 1

  16. Format : AVC

  17. Format/Info : Advanced Video Codec

  18. Format profile : High@L4

  19. Format settings : CABAC / 4 Ref Frames

  20. Format settings, CABAC : Yes

  21. Format settings, Reference frames : 4 frames

  22. Codec ID : V_MPEG4/ISO/AVC

  23. Duration : 2 h 3 min

  24. Bit rate mode : Variable

  25. Bit rate : 4 458 kb/s

  26. Maximum bit rate : 20.0 Mb/s

  27. Width : 1 920 pixels

  28. Height : 1 080 pixels

  29. Display aspect ratio : 16:9

  30. Frame rate mode : Constant

  31. Frame rate : 23.976 (24000/1001/53354) FPS

  32. Color space : YUV

  33. Chroma subsampling : 4:2:0

  34. Bit depth : 8 bits

  35. Scan type : Progressive

  36. Bits/(Pixel*Frame) : 0.090

  37. Stream size : 3.86 GiB (87%)

  38. Writing library : x264 core 148 r2721 6d200cf

  39. Encoding settings : cabac=1 / ref=4 / deblock=1:0:0 / analyse=0x3:0x111 / me=umh / subme=10 / psy=1 / psy_rd=1.00:0.00 / mixed_ref=1 / me_range=120 / chroma_me=1 / trellis=2 / 8x8dct=1 / cqm=0 / deadzone=21,11 / fast_pskip=1 / chroma_qp_offset=-2 / threads=8 / lookahead_threads=2 / sliced_threads=0 / nr=0 / decimate=1 / interlaced=0 / NTMzNTQ= / bluray_compat=0 / stitchable=1 / constrained_intra=0 / bframes=16 / b_pyramid=2 / b_adapt=2 / b_bias=0 / direct=3 / weightb=1 / open_gop=0 / weightp=2 / keyint=240 / keyint_min=121 / scenecut=0 / intra_refresh=0 / rc_lookahead=240 / rc=crf / mbtree=1 / crf=20.0 / qcomp=0.50 / qpmin=6 / qpmax=51 / qpstep=4 / vbv_maxrate=20000 / vbv_bufsize=25000 / crf_max=0.0 / nal_hrd=vbr / filler=0 / NTMzNTQ=LmsMAP37EqsCpk / ip_ratio=1.40 / aq=1:0.80

  40. Default : Yes

  41. Forced : No


  42. Audio

  43. ID : 2

  44. Format : E-AC-3

  45. Format/Info : Enhanced AC-3

  46. Commercial name : Dolby Digital Plus

  47. Codec ID : A_EAC3

  48. Duration : 2 h 3 min

  49. Bit rate mode : Constant

  50. Bit rate : 640 kb/s

  51. Channel(s) : 6 channels

  52. Channel layout : L R C LFE Ls Rs

  53. Sampling rate : 48.0 kHz

  54. Frame rate : 31.250 FPS (1536 SPF)

  55. Compression mode : Lossy

  56. Stream size : 567 MiB (13%)

  57. Language : Japanese

  58. Service kind : Complete Main

  59. Default : Yes

  60. Forced : No


  61. Text #1

  62. ID : 3

  63. Format : UTF-8

  64. Codec ID : S_TEXT/UTF8

  65. Codec ID/Info : UTF-8 Plain Text

  66. Duration : 1 h 58 min

  67. Bit rate : 34 b/s

  68. Count of elements : 1124

  69. Stream size : 29.7 KiB (0%)

  70. Language : English

  71. Default : Yes

  72. Forced : No


  73. Text #2

  74. ID : 4

  75. Format : UTF-8

  76. Codec ID : S_TEXT/UTF8

  77. Codec ID/Info : UTF-8 Plain Text

  78. Duration : 2 h 2 min

  79. Bit rate : 95 b/s

  80. Count of elements : 1139

  81. Stream size : 85.6 KiB (0%)

  82. Title : 简体中文

  83. Language : Chinese

  84. Default : Yes

  85. Forced : Yes


  86. Text #3

  87. ID : 5

  88. Format : UTF-8

  89. Codec ID : S_TEXT/UTF8

  90. Codec ID/Info : UTF-8 Plain Text

  91. Duration : 2 h 2 min

  92. Bit rate : 100 b/s

  93. Count of elements : 1116

  94. Stream size : 90.5 KiB (0%)

  95. Title : 繁体中文

  96. Language : Chinese

  97. Default : Yes

  98. Forced : No


文件下载


除非特别注明,本文『爱情人偶[中文字幕].Romance.Doll.2020.1080p.NF.WEB-DL.x264.DDP5.1 4.42GB』来源于互联网机器人自动抓取,非本站原创。 浮游电影网不对本文拥有版权,如有侵犯,请联系邮箱:fuyouu#yandex.com[#换成@]投诉。我们会在15个工作日内删除。 但烦请转载时请标明出处:“本文转载于『浮游电影网』,原文地址:https://www.fuyouu.com/14361.html

评论吧骚年!

发表你的见解   

昵称*

E-mail*(建议输入,以便收到博主回复的提示邮件)

验证码*

您可以使用eMule或eMule Mod(Windows)、aMule(Win、Linux、Mac)等软件下载eD2k链接。。
eMule收藏集(.emulecollection)文件是您选中的所有链接的列表文件。eMule可以直接下载它们。
按住SHIFT键选择可以选中多个选择框。
可用文件名和大小选择器来选择文件。
文件名选择器帮您根据文件名称或后缀来选择文件。不分大小写。
符号使用:
和:空格( )、+
不包含:-
或:|
转义:一对英文引号("");
匹配开头:^
匹配结尾:$
例如:
选中所有名称中包含有“eMule”或“0.49c”字眼,但不包含有“exe”字眼的:emule|0.49c -exe
选中所有名称的开头是“eMule”,结尾是“0.49c”的:^emule 0.49c$
选中所有名称中带有“eMule 0.49c”的(必须是“eMule 0.49c”,中间没有别的字符,不能是“eMule fake 0.49c”),需要转义:"emule 0.49c"
大小选择器帮您根据文件大小选择文件。