当前位置: 首页 >> 欧美电影 >> 新奇[中文字幕].Newness.2017.1080p.NF.WEB-DL.x264.DDP5.1 2.10GB >> 正文

新奇[中文字幕].Newness.2017.1080p.NF.WEB-DL.x264.DDP5.1 2.10GB

2021年09月14日 15:13:02     电影发布:来源于网络     电影分类:欧美电影     评论(0)    

新奇[中文字幕].Newness.2017.1080p.NF.WEB DL.x264.DDP5.1 2.10GB 爱情片 剧情片 欧美电影  第1张

◎译 名 新奇 / 我们的爱情一言难尽(台)

◎片 名 Newness

◎年 代 2017

◎产 地 美国

◎类 别 剧情 / 爱情

◎语 言 英语

◎上映日期 2017-01-25(圣丹斯电影节)

◎IMDb链接 https://www.imdb.com/title/tt6408226/

◎豆瓣评分 6.3/10 (3171人评价)

◎豆瓣链接 https://movie.douban.com/subject/26952963/

◎片 长 117分钟

◎导 演 德雷克·多雷穆斯 Drake Doremus (id:1000867)

◎编 剧 本·约克·琼斯 Ben York Jones (id:1005578)

◎演 员 尼古拉斯·霍尔特 Nicholas Hoult (id:1036341)

莱娅·柯丝达 Laia Costa (id:1348722)

丹尼·赫斯顿 Danny Huston (id:1333426)

考特尼·伊顿 Courtney Eaton (id:1341732)

马修·格雷·古柏勒 Matthew Gray Gubler (id:1031808)

庞·克莱门捷夫 Pom Klementieff (id:1313255)

大卫·塞尔比 David Selby (id:1145930)

阿曼达·塞拉 Amanda Serra (id:1388577)

杰西卡·亨维克 Jessica Henwick (id:1264859)

小艾伯特·哈蒙德 Albert Hammond Jr. (id:1192043)

丽阿娜·斯韦林根 Lianna Swearingen (id:1388578)

埃尔莎·科克雷尔 Elsa Cocquerel (id:1388579)

丹尼尔·祖瓦图 Daniel Zovatto (id:1332100)

埃里克·埃德尔斯坦 Eric Edelstein (id:1223276)

卡伊·伦诺克斯 Kai Lennox (id:1342427)

朱迪·特纳-史密斯 Jodie Turner-Smith (id:1397699)

◎标 签 爱情 / 美国 / 欲望 / 情感 / 人性 / 2017 / 情色 / 剧情

◎简 介

当今各种交友软体推陈出新,约炮文化盛行,人人都只想要谈场速食爱情。生于千禧世代的马汀和盖比因为交友软体而相识,随即陷入如胶似漆的热恋期,感情却随着时间过去越趋平淡,两人都迫切渴望拥有新的刺激。身处在这个充斥“开放式关系”的花花世界里,这对情侣究竟能否维持“稳定交往中”的感情状态,还是会彻底迷失在选择泛滥的社群网路之中……

  1. ##### MediaInfo ######

  2. General

  3. Unique ID : 205580870393265890153025530617148028601 (0x9AA96F783B9E453C05F633465A0536B9)

  4. Complete name : 新奇.Newness.2017.1080p.NF.WEB-DL.x264.DDP5.1-10006@BBQDDQ.COM.mkv

  5. Format : Matroska

  6. Format version : Version 4

  7. File size : 2.10 GiB

  8. Duration : 1 h 57 min

  9. Overall bit rate mode : Variable

  10. Overall bit rate : 2 568 kb/s

  11. Encoded date : UTC 2021-09-12 05:44:25

  12. Writing application : mkvmerge v61.0.0 ('So') 64-bit

  13. Writing library : libebml v1.4.2 + libmatroska v1.6.4


  14. Video

  15. ID : 1

  16. Format : AVC

  17. Format/Info : Advanced Video Codec

  18. Format profile : High@L4

  19. Format settings : CABAC / 4 Ref Frames

  20. Format settings, CABAC : Yes

  21. Format settings, Reference frames : 4 frames

  22. Codec ID : V_MPEG4/ISO/AVC

  23. Duration : 1 h 57 min

  24. Bit rate mode : Variable

  25. Bit rate : 1 285 kb/s

  26. Maximum bit rate : 20.0 Mb/s

  27. Width : 1 920 pixels

  28. Height : 1 080 pixels

  29. Display aspect ratio : 16:9

  30. Frame rate mode : Constant

  31. Frame rate : 23.976 (24000/1001/53354) FPS

  32. Color space : YUV

  33. Chroma subsampling : 4:2:0

  34. Bit depth : 8 bits

  35. Scan type : Progressive

  36. Bits/(Pixel*Frame) : 0.026

  37. Stream size : 1.05 GiB (50%)

  38. Writing library : x264 core 148 r2715 7e75228

  39. Encoding settings : cabac=1 / ref=4 / deblock=1:0:0 / analyse=0x3:0x111 / me=umh / subme=10 / psy=1 / psy_rd=1.00:0.00 / mixed_ref=1 / me_range=120 / chroma_me=1 / trellis=2 / 8x8dct=1 / cqm=0 / deadzone=21,11 / fast_pskip=1 / chroma_qp_offset=-2 / threads=8 / lookahead_threads=2 / sliced_threads=0 / nr=0 / decimate=1 / interlaced=0 / NTMzNTQ= / bluray_compat=0 / stitchable=1 / constrained_intra=0 / bframes=16 / b_pyramid=2 / b_adapt=2 / b_bias=0 / direct=3 / weightb=1 / open_gop=0 / weightp=2 / keyint=240 / keyint_min=121 / scenecut=0 / intra_refresh=0 / rc_lookahead=240 / rc=crf / mbtree=1 / crf=20.0 / qcomp=0.50 / qpmin=6 / qpmax=51 / qpstep=4 / vbv_maxrate=20000 / vbv_bufsize=25000 / crf_max=0.0 / nal_hrd=vbr / filler=0 / NTMzNTQ=LmsMAP37EqsCpk / ip_ratio=1.40 / aq=1:0.80

  40. Default : Yes

  41. Forced : No


  42. Audio #1

  43. ID : 2

  44. Format : E-AC-3

  45. Format/Info : Enhanced AC-3

  46. Commercial name : Dolby Digital Plus

  47. Codec ID : A_EAC3

  48. Duration : 1 h 57 min

  49. Bit rate mode : Constant

  50. Bit rate : 640 kb/s

  51. Channel(s) : 6 channels

  52. Channel layout : L R C LFE Ls Rs

  53. Sampling rate : 48.0 kHz

  54. Frame rate : 31.250 FPS (1536 SPF)

  55. Compression mode : Lossy

  56. Stream size : 536 MiB (25%)

  57. Language : English

  58. Service kind : Complete Main

  59. Default : Yes

  60. Forced : No


  61. Audio #2

  62. ID : 3

  63. Format : E-AC-3

  64. Format/Info : Enhanced AC-3

  65. Commercial name : Dolby Digital Plus

  66. Codec ID : A_EAC3

  67. Duration : 1 h 57 min

  68. Bit rate mode : Constant

  69. Bit rate : 640 kb/s

  70. Channel(s) : 6 channels

  71. Channel layout : L R C LFE Ls Rs

  72. Sampling rate : 48.0 kHz

  73. Frame rate : 31.250 FPS (1536 SPF)

  74. Compression mode : Lossy

  75. Stream size : 536 MiB (25%)

  76. Language : Japanese

  77. Service kind : Complete Main

  78. Default : Yes

  79. Forced : No


  80. Text #1

  81. ID : 4

  82. Format : UTF-8

  83. Codec ID : S_TEXT/UTF8

  84. Codec ID/Info : UTF-8 Plain Text

  85. Duration : 1 h 55 min

  86. Bit rate : 205 b/s

  87. Count of elements : 2056

  88. Stream size : 174 KiB (0%)

  89. Language : English

  90. Default : Yes

  91. Forced : No


  92. Text #2

  93. ID : 5

  94. Format : UTF-8

  95. Codec ID : S_TEXT/UTF8

  96. Codec ID/Info : UTF-8 Plain Text

  97. Duration : 1 h 52 min

  98. Bit rate : 267 b/s

  99. Count of elements : 1665

  100. Stream size : 219 KiB (0%)

  101. Title : 简体中文

  102. Language : Chinese

  103. Default : Yes

  104. Forced : Yes


  105. Text #3

  106. ID : 6

  107. Format : UTF-8

  108. Codec ID : S_TEXT/UTF8

  109. Codec ID/Info : UTF-8 Plain Text

  110. Duration : 1 h 52 min

  111. Bit rate : 273 b/s

  112. Count of elements : 1666

  113. Stream size : 225 KiB (0%)

  114. Title : 繁体中文

  115. Language : Chinese

  116. Default : Yes

  117. Forced : No


文件下载


除非特别注明,本文『新奇[中文字幕].Newness.2017.1080p.NF.WEB-DL.x264.DDP5.1 2.10GB』来源于互联网机器人自动抓取,非本站原创。 浮游电影网不对本文拥有版权,如有侵犯,请联系邮箱:fuyouu#yandex.com[#换成@]投诉。我们会在15个工作日内删除。 但烦请转载时请标明出处:“本文转载于『浮游电影网』,原文地址:https://www.fuyouu.com/14359.html

评论吧骚年!

发表你的见解   

昵称*

E-mail*(建议输入,以便收到博主回复的提示邮件)

验证码*

您可以使用eMule或eMule Mod(Windows)、aMule(Win、Linux、Mac)等软件下载eD2k链接。。
eMule收藏集(.emulecollection)文件是您选中的所有链接的列表文件。eMule可以直接下载它们。
按住SHIFT键选择可以选中多个选择框。
可用文件名和大小选择器来选择文件。
文件名选择器帮您根据文件名称或后缀来选择文件。不分大小写。
符号使用:
和:空格( )、+
不包含:-
或:|
转义:一对英文引号("");
匹配开头:^
匹配结尾:$
例如:
选中所有名称中包含有“eMule”或“0.49c”字眼,但不包含有“exe”字眼的:emule|0.49c -exe
选中所有名称的开头是“eMule”,结尾是“0.49c”的:^emule 0.49c$
选中所有名称中带有“eMule 0.49c”的(必须是“eMule 0.49c”,中间没有别的字符,不能是“eMule fake 0.49c”),需要转义:"emule 0.49c"
大小选择器帮您根据文件大小选择文件。