当前位置: 首页 >> 国产电影 >> 夏洛特烦恼[120帧][国语配音/中文字幕].Goodbye.Mr.Loser.2015.2160p.WEB-DL.H265.AAC 7.08GB >> 正文

夏洛特烦恼[120帧][国语配音/中文字幕].Goodbye.Mr.Loser.2015.2160p.WEB-DL.H265.AAC 7.08GB

2021年09月14日 15:10:55     电影发布:来源于网络     电影分类:国产电影     评论(0)    

夏洛特烦恼[120帧][国语配音/中文字幕].Goodbye.Mr.Loser.2015.2160p.WEB DL.H265.AAC 7.08GB 爱情片 喜剧片 国产电影  第1张

◎译 名 夏洛特烦恼 / Goodbye Mr. Loser

◎年 代 2015

◎产 地 中国大陆

◎类 别 喜剧 / 爱情

◎语 言 汉语普通话

◎上映日期 2015-09-30(中国大陆)

◎IMDb链接 https://www.imdb.com/title/tt5061814/

◎豆瓣评分 7.7/10 (795802人评价)

◎豆瓣链接 https://movie.douban.com/subject/25964071/

◎片 长 104分钟

◎导 演 闫非 Fei Yan (id:1350410)

彭大魔 Damo Peng (id:1350409)

◎编 剧 闫非 Fei Yan (id:1350410)

彭大魔 Damo Peng (id:1350409)

王佳伟 Jiawei Wang (id:1406619)

◎演 员 沈腾 Teng Shen (id:1325700)

马丽 Li Ma (id:1319032)

尹正 Zheng Yin (id:1332934)

艾伦 Allen (id:1350408)

王智 Zhi Wang (id:1321587)

田雨 Yu Tian (id:1316331)

宋阳 Yang Song (id:1350407)

常远 Yuan Chang (id:1327084)

李萍 Ping Li (id:1328349)

李立群 Lichun Lee (id:1274438)

张一鸣 Yiming Zhang (id:1322777)

马小茜 Xiaoqian Ma (id:1351721)

刘坤 Kun Liu (id:1356681)

黄才伦 Cailun Huang (id:1363857)

陈昊明 Haoming Chen (id:1344888)

王成思 Chengsi Wang (id:1383525)

刘金 Jin Liu (id:1355519)

周展翅 Zhanchi Zhou (id:1354617)

常世奎 Shikui Chang (id:1379728)

王琦 Qi Wang (id:1330849)

赵雪 Xue Zhao (id:1407461)

黄杨 Yang Huang (id:1320285)

肖扬 Yang Xiao (id:1367855)

魏翔 Xiang Wei (id:1355058)

吴江 Jiang Wu (id:1367692)

李海银 Haiyin Li (id:1407469)

陶亮 Liang Tao (id:1353283)

马驰 Chi Ma (id:1398260)

许猛 Meng Xu (id:1426220)

关鹏 Peng Guan (id:1458825)

遇凯 Kai Yu (id:1426224)

孙忠怀 Zhong-Huai Sun (id:1407464)

蒋海波 Haibo Jiang (id:1376067)

叶宁 Ning Ye (id:1407465)

田甜 Tian Tian (id:1384306)

曹华益 Huayi Cao (id:1379649)

刘洪涛 Hongtao Liu (id:1407463)

刘娜 Na Liu (id:1422483)

马驰 Chi Ma (id:1398260)

张晨 Chen Zhang (id:1407466)

郑剑锋 Kim Fung Cheng (id:1369198)

常斌 Bin Chang (id:1413576)

董冬冬 Dongdong Dong (id:1348747)

那英 Ying Na (id:1040056)

陈曦 Xi Chen (id:1352481)

孙明 Ming Sun (id:1305119)

杜媛 Yuan Du (id:1282754)

许宏宇 Derek Hui (id:1275501)

周肖林 Xiaolin Zhou (id:1365738)

周正飞 Zhengfei Zhou (id:1406334)

刘洋 Yang Liu (id:1408732)

◎标 签 喜剧 / 开心麻花 / 搞笑 / 沈腾 / 青春 / 国产 / 爱情 / 2015

◎简 介

在学生时代的初恋秋雅(王智 饰)的婚礼上,毕业后吃软饭靠老婆养的夏洛(沈腾 饰)假充大款,出尽其丑,中间还被老婆马冬梅(马丽 饰)戳穿暴捶。混乱之中,夏洛意外穿越时空,回到了1997年的学生时代的课堂里。他懵懵懂懂,以为是场真实感极强的梦,于是痛揍王老师,强吻秋雅,还尝试跳楼让自己醒来。当受伤的他从病床上苏醒时,他意识到自己真的穿越了时空。既然有机会重新来过,那不如好好折腾一回。他勇敢追求秋雅、奚落优等生袁华(尹正 饰)、拒绝马冬梅的死缠烂打。后来夏洛凭借“创作”朴树、窦唯等人的成名曲而进入娱乐圈。

他的人生发生翻天覆地的巨变,但是内心某个地方却越来越感到空虚……

◎获奖情况 (共8项)

第33届大众电影百花奖 (2016)

最佳故事片(提名)

最佳编剧(提名)

最佳女配角(提名)

└──王智 (id:1321587)

第23届北京大学生电影节 (2016)

最佳处女作奖(提名)

第2届豆瓣电影年度榜单 (2015)

最受关注的院线电影(提名)

10月最受关注电影

第6届豆瓣电影鑫像奖 (2016)

鑫豆单元 最佳喜剧片(提名)

鑫豆单元 最佳歌曲(提名)

  1. ##### MediaInfo ######

  2. General

  3. Complete name : 夏洛特烦恼.Goodbye.Mr.Loser.2015.2160p.WEB-DL.H265.AAC-10006@BBQDDQ.COM.mp4

  4. Format : MPEG-4

  5. Format profile : Base Media

  6. Codec ID : isom (isom/iso2/mp41)

  7. File size : 7.08 GiB

  8. Duration : 1 h 43 min

  9. Overall bit rate : 9 765 kb/s

  10. Writing application : Lavf58.32.104


  11. Video

  12. ID : 1

  13. Format : HEVC

  14. Format/Info : High Efficiency Video Coding

  15. Format profile : Main@L5.2@Main

  16. Codec ID : hev1

  17. Codec ID/Info : High Efficiency Video Coding

  18. Duration : 1 h 43 min

  19. Bit rate : 9 619 kb/s

  20. Width : 3 840 pixels

  21. Height : 1 600 pixels

  22. Display aspect ratio : 2.40:1

  23. Frame rate mode : Constant

  24. Frame rate : 120.000 FPS

  25. Color space : YUV

  26. Chroma subsampling : 4:2:0

  27. Bit depth : 8 bits

  28. Bits/(Pixel*Frame) : 0.013

  29. Stream size : 6.97 GiB (99%)

  30. Color range : Limited

  31. Color primaries : BT.709

  32. Transfer characteristics : BT.709

  33. Matrix coefficients : BT.709

  34. Codec configuration box : hvcC


  35. Audio

  36. ID : 2

  37. Format : AAC LC

  38. Format/Info : Advanced Audio Codec Low Complexity

  39. Codec ID : mp4a-40-2

  40. Duration : 1 h 43 min

  41. Bit rate mode : Constant

  42. Bit rate : 126 kb/s

  43. Channel(s) : 2 channels

  44. Channel layout : L R

  45. Sampling rate : 44.1 kHz

  46. Frame rate : 43.066 FPS (1024 SPF)

  47. Compression mode : Lossy

  48. Stream size : 93.2 MiB (1%)

  49. Default : Yes

  50. Alternate group : 1


文件下载


除非特别注明,本文『夏洛特烦恼[120帧][国语配音/中文字幕].Goodbye.Mr.Loser.2015.2160p.WEB-DL.H265.AAC 7.08GB』来源于互联网机器人自动抓取,非本站原创。 浮游电影网不对本文拥有版权,如有侵犯,请联系邮箱:fuyouu#yandex.com[#换成@]投诉。我们会在15个工作日内删除。 但烦请转载时请标明出处:“本文转载于『浮游电影网』,原文地址:https://www.fuyouu.com/14357.html

评论吧骚年!

发表你的见解   

昵称*

E-mail*(建议输入,以便收到博主回复的提示邮件)

验证码*

您可以使用eMule或eMule Mod(Windows)、aMule(Win、Linux、Mac)等软件下载eD2k链接。。
eMule收藏集(.emulecollection)文件是您选中的所有链接的列表文件。eMule可以直接下载它们。
按住SHIFT键选择可以选中多个选择框。
可用文件名和大小选择器来选择文件。
文件名选择器帮您根据文件名称或后缀来选择文件。不分大小写。
符号使用:
和:空格( )、+
不包含:-
或:|
转义:一对英文引号("");
匹配开头:^
匹配结尾:$
例如:
选中所有名称中包含有“eMule”或“0.49c”字眼,但不包含有“exe”字眼的:emule|0.49c -exe
选中所有名称的开头是“eMule”,结尾是“0.49c”的:^emule 0.49c$
选中所有名称中带有“eMule 0.49c”的(必须是“eMule 0.49c”,中间没有别的字符,不能是“eMule fake 0.49c”),需要转义:"emule 0.49c"
大小选择器帮您根据文件大小选择文件。