当前位置: 首页 >> 海外电影 >> 活人破胆2[简繁字幕].Anatomie.2.2003.1080p.BluRay.x265.10bit.DD.5.1.MNHD 5.81GB >> 正文

活人破胆2[简繁字幕].Anatomie.2.2003.1080p.BluRay.x265.10bit.DD.5.1.MNHD 5.81GB

2021年09月14日 15:09:40     电影发布:来源于网络     电影分类:海外电影     评论(0)    

活人破胆2[简繁字幕].Anatomie.2.2003.1080p.BluRay.x265.10bit.DD.5.1.MNHD 5.81GB 恐怖片 惊悚片 海外电影  第1张

◎译 名 活人破胆2 / 解剖2 / 解剖杀人狂2 / Anatomy 2

◎片 名 Anatomie 2

◎年 代 2003

◎产 地 德国

◎类 别 惊悚 / 恐怖

◎语 言 德语 / 英语

◎上映日期 2003-02-06

◎IMDb链接 https://www.imdb.com/title/tt0312358/

◎豆瓣评分 6.0/10 (287人评价)

◎豆瓣链接 https://movie.douban.com/subject/1778383/

◎片 长 101 分钟

◎导 演 斯戴芬·卢佐维茨基 Stefan Ruzowitzky (id:1014437)

◎编 剧 斯戴芬·卢佐维茨基 Stefan Ruzowitzky (id:1014437)

◎演 员 巴纳比·麦楚拉特 Barnaby Metschurat (id:1122896)

罗泽尔·泽希 Rosel Zech (id:1165752)

沃坦·维尔克·默林 Wotan Wilke M?hring (id:1130970)

穆拉利·佩鲁马尔 Murali Perumal (id:1207229)

汉诺·科夫勒 Hanno Koffler (id:1000754)

罗茜·阿尔瓦蕾斯 Rosie Alvarez (id:1460372)

赫尔穆特·马克沃特 Helmut Markwort (id:1114712)

罗曼·尼泽卡 Roman Knizka (id:1103852)

托尔斯滕·布施泰纳 Torsten Buchsteiner (id:1002158)

赫伯特·克瑙普 Herbert Knaup (id:1002926)

弗朗卡·波滕特 Franka Potente (id:1009285)

奥古斯特·迪赫 August Diehl (id:1014063)

海克·玛卡琪 Heike Makatsch (id:1022795)

索恩克·莫宁 Soenke M?hring (id:1028143)

弗朗克·吉林 Frank Giering (id:1037352)

尤沃钦·毕斯梅尔 Joachim Bissmeier (id:1064212)

克里斯蒂娜·哈伯特 Christine Harbort (id:1101013)

米贾姆·海勒 Mirjam Heller (id:1102461)

卡尔文·迪恩 Calvin Dean (id:1460375)

Jakob Claussen Jakob Claussen (id:1020185)

Thomas W?bke Thomas W?bke (id:1301345)

Philipp Barnett Philipp Barnett (id:1038953)

Marius Ruhland Marius Ruhland (id:1020138)

Andreas Berger Andreas Berger (id:1308897)

Hans Funck Hans Funck (id:1284325)

Nessie Nesslauer Nessie Nesslauer (id:1293062)

Christian M. Goldbeck Christian M. Goldbeck (id:1034046)

◎标 签 惊悚 / 德国 / 恐怖 / 德国电影 / 2003 / 活人破胆 / 电影 / 我看过的电影

◎简 介

奋发向上的医学院学生宝拉(Franka Potente),好不容易获准进入颇负盛名的海德堡研究机构,她希望能继承祖父的衣钵,成为一名出色的医生。在上解剖课时,她发现解剖台上的尸体竟是她认识的人,便积极暗中调查尸体的来源,发现有一个以残酷手法研究活人的神秘社团在学校活动,而班上的同学也一一离奇失踪,她决定继续挖掘真相。

所谓人造肌,类似骷髅会的反医誓组织,对医学道德的探讨,的确不失为恐怖,人性道德的恐怖

  1. ##### MediaInfo ######

  2. General

  3. Unique ID : 67492503851019693611381946935200708324 (0x32C6955AEFD00CA9822CF9E8D97BF6E4)

  4. Complete name : Anatomie.2.2003.1080p.BluRay.x265.10bit.DD.5.1.MNHD-10018@BBQDDQ.COM.mkv

  5. Format : Matroska

  6. Format version : Version 4

  7. File size : 5.81 GiB

  8. Duration : 1 h 41 min

  9. Overall bit rate : 8 217 kb/s

  10. Movie name : Anatomie.2.2003.1080p.BluRay.x265.10bit.DD.5.1.MNHD-10018@BBQDDQ.COM

  11. Encoded date : UTC 2021-09-12 03:09:53

  12. Writing application : mkvmerge v53.0.0 ('Fool's Gold') 64-bit

  13. Writing library : libebml v1.4.1 + libmatroska v1.6.2


  14. Video

  15. ID : 1

  16. Format : HEVC

  17. Format/Info : High Efficiency Video Coding

  18. Format profile : Main 10@L5.1@High

  19. Codec ID : V_MPEGH/ISO/HEVC

  20. Duration : 1 h 41 min

  21. Bit rate : 7 551 kb/s

  22. Width : 1 920 pixels

  23. Height : 796 pixels

  24. Display aspect ratio : 2.40:1

  25. Frame rate mode : Constant

  26. Frame rate : 23.976 (24000/1001/53354) FPS

  27. Color space : YUV

  28. Chroma subsampling : 4:2:0

  29. Bit depth : 10 bits

  30. Bits/(Pixel*Frame) : 0.206

  31. Stream size : 5.34 GiB (92%)

  32. Writing library : x265 3.5+1-f0c1022b6:[Linux][GCC 9.3.0][64 bit] 10bit

  33. Encoding settings : cpuid=533541111039 / frame-threads=3 / numa-pools=11 / wpp / pmode / no-pme / no-psnr / no-ssim / log-level=2 / input-csp=1 / input-res=1920x796 / interlace=0 / total-frames=145655 / level-idc=0 / high-tier=1 / uhd-bd=0 / ref=4 / no-allow-non-conformance / no-repeat-headers / annexb / no-aud / no-hrd / info / hash=0 / no-temporal-layers / no-open-gop / min-keyint=1 / keyint=250 / gop-lookahead=0 / bframes=6 / b-adapt=2 / b-pyramid / bframe-bias=0 / rc-lookahead=80 / lookahead-slices=0 / NTMzNTQ=uuDQuD2mJt9fsCf / scenecut=40 / hist-scenecut=0 / radl=0 / no-splice / no-intra-refresh / ctu=32 / min-cu-size=8 / no-rect / no-amp / max-tu-size=32 / tu-inter-depth=4 / tu-intra-depth=4 / limit-tu=0 / rdoq-level=2 / dynamic-rd=0.00 / no-ssim-rd / signhide / no-tskip / nr-intra=0 / nr-inter=0 / no-constrained-intra / strong-intra-smoothing / max-merge=5 / limit-refs=0 / no-limit-modes / me=3 / subme=7 / merange=57 / temporal-mvp / no-frame-dup / no-hme / weightp / weightb / no-analyze-src-pics / deblock=-3:-3 / no-sao / no-sao-non-deblock / rd=4 / selective-sao=0 / no-early-skip / no-rskip / no-fast-intra / no-tskip-fast / no-cu-lossless / b-intra / no-splitrd-skip / rdpenalty=0 / psy-rd=1.50 / psy-rdoq=1.00 / no-rd-refine / no-lossless / cbqpoffs=-2 / crqpoffs=-2 / rc=crf / crf=22.8 / qcomp=0.65 / qpstep=4 / stats-write=0 / stats-read=0 / vbv-maxrate=160000 / vbv-bufsize=160000 / vbv-init=0.9 / min-vbv-fullness=50.0 / max-vbv-fullness=80.0 / crf-max=0.0 / crf-min=0.0 / ipratio=1.30 / pbratio=1.20 / aq-mode=1 / aq-strength=1.00 / no-cutree / zone-count=0 / no-strict-cbr / qg-size=8 / no-rc-grain / qpmax=69 / qpmin=0 / no-const-vbv / sar=0 / overscan=0 / videoformat=5 / range=0 / colorprim=1 / transfer=1 / colormatrix=1 / chromaloc=0 / display-window=0 / cll=0,0 / min-luma=0 / max-luma=1023 / log2-max-poc-lsb=8 / vui-timing-info / vui-hrd-info / slices=1 / no-opt-qp-pps / no-opt-ref-list-length-pps / no-multi-pass-opt-rps / scenecut-bias=0.05 / hist-threshold=0.03 / no-opt-cu-delta-qp / no-aq-motion / no-hdr10 / no-hdr10-opt / no-dhdr10-opt / no-idr-recovery-sei / analysis-reuse-level=0 / analysis-save-reuse-level=0 / analysis-load-reuse-level=0 / scale-factor=0 / refine-intra=0 / refine-inter=0 / refine-mv=1 / refine-ctu-distortion=0 / no-limit-sao / ctu-info=0 / no-lowpass-dct / refine-analysis-type=0 / copy-pic=1 / max-ausize-factor=1.0 / no-dynamic-refine / no-single-sei / no-hevc-aq / no-svt / no-field / qp-adaptation-range=1.00 / scenecut-aware-qp=0conformance-window-offsets / right=0 / bottom=0 / NTMzNTQ= / decoder-max-rate=0 / no-vbv-live-multi-pass

  34. Default : Yes

  35. Forced : No

  36. Color range : Limited

  37. Color primaries : BT.709

  38. Transfer characteristics : BT.709

  39. Matrix coefficients : BT.709


  40. Audio

  41. ID : 2

  42. Format : AC-3

  43. Format/Info : Audio Coding 3

  44. Commercial name : Dolby Digital

  45. Codec ID : A_AC3

  46. Duration : 1 h 41 min

  47. Bit rate mode : Constant

  48. Bit rate : 640 kb/s

  49. Channel(s) : 6 channels

  50. Channel layout : L R C LFE Ls Rs

  51. Sampling rate : 48.0 kHz

  52. Frame rate : 31.250 FPS (1536 SPF)

  53. Compression mode : Lossy

  54. Stream size : 463 MiB (8%)

  55. Title : German

  56. Language : German

  57. Service kind : Complete Main

  58. Default : Yes

  59. Forced : No


  60. Text #1

  61. ID : 3

  62. Format : UTF-8

  63. Codec ID : S_TEXT/UTF8

  64. Codec ID/Info : UTF-8 Plain Text

  65. Duration : 1 h 40 min

  66. Bit rate : 44 b/s

  67. Count of elements : 1273

  68. Stream size : 33.1 KiB (0%)

  69. Title : Chinese (Simplified)

  70. Language : Chinese

  71. Default : Yes

  72. Forced : No


  73. Text #2

  74. ID : 4

  75. Format : UTF-8

  76. Codec ID : S_TEXT/UTF8

  77. Codec ID/Info : UTF-8 Plain Text

  78. Duration : 1 h 40 min

  79. Bit rate : 44 b/s

  80. Count of elements : 1273

  81. Stream size : 33.1 KiB (0%)

  82. Title : Chinese (Traditional)

  83. Language : Chinese

  84. Default : No

  85. Forced : No


  86. Text #3

  87. ID : 5

  88. Format : PGS

  89. Muxing mode : zlib

  90. Codec ID : S_HDMV/PGS

  91. Codec ID/Info : Picture based subtitle format used on BDs/HD-DVDs

  92. Duration : 1 h 36 min

  93. Bit rate : 28.1 kb/s

  94. Count of elements : 2463

  95. Stream size : 19.4 MiB (0%)

  96. Title : English

  97. Language : English

  98. Default : No

  99. Forced : No


  100. Text #4

  101. ID : 6

  102. Format : PGS

  103. Muxing mode : zlib

  104. Codec ID : S_HDMV/PGS

  105. Codec ID/Info : Picture based subtitle format used on BDs/HD-DVDs

  106. Duration : 1 h 39 min

  107. Bit rate : 34.2 kb/s

  108. Count of elements : 2480

  109. Stream size : 24.4 MiB (0%)

  110. Title : German

  111. Language : German

  112. Default : No

  113. Forced : No


  114. Menu

  115. 00:00:00.000 : en:Chapter 01

  116. 00:04:37.652 : en:Chapter 02

  117. 00:16:29.238 : en:Chapter 03

  118. 00:28:15.652 : en:Chapter 04

  119. 00:44:52.356 : en:Chapter 05

  120. 00:56:42.482 : en:Chapter 06

  121. 01:10:44.198 : en:Chapter 07

  122. 01:23:18.535 : en:Chapter 08

  123. 01:36:52.890 : en:Chapter 09


文件下载


除非特别注明,本文『活人破胆2[简繁字幕].Anatomie.2.2003.1080p.BluRay.x265.10bit.DD.5.1.MNHD 5.81GB』来源于互联网机器人自动抓取,非本站原创。 浮游电影网不对本文拥有版权,如有侵犯,请联系邮箱:fuyouu#yandex.com[#换成@]投诉。我们会在15个工作日内删除。 但烦请转载时请标明出处:“本文转载于『浮游电影网』,原文地址:https://www.fuyouu.com/14356.html

评论吧骚年!

发表你的见解   

昵称*

E-mail*(建议输入,以便收到博主回复的提示邮件)

验证码*

您可以使用eMule或eMule Mod(Windows)、aMule(Win、Linux、Mac)等软件下载eD2k链接。。
eMule收藏集(.emulecollection)文件是您选中的所有链接的列表文件。eMule可以直接下载它们。
按住SHIFT键选择可以选中多个选择框。
可用文件名和大小选择器来选择文件。
文件名选择器帮您根据文件名称或后缀来选择文件。不分大小写。
符号使用:
和:空格( )、+
不包含:-
或:|
转义:一对英文引号("");
匹配开头:^
匹配结尾:$
例如:
选中所有名称中包含有“eMule”或“0.49c”字眼,但不包含有“exe”字眼的:emule|0.49c -exe
选中所有名称的开头是“eMule”,结尾是“0.49c”的:^emule 0.49c$
选中所有名称中带有“eMule 0.49c”的(必须是“eMule 0.49c”,中间没有别的字符,不能是“eMule fake 0.49c”),需要转义:"emule 0.49c"
大小选择器帮您根据文件大小选择文件。