当前位置: 首页 >> 欧美电影 >> 一小时快照[中文字幕].One.Hour.Photo.2002.1080p.BluRay.DTS.x265-10bit 8.37GB >> 正文

一小时快照[中文字幕].One.Hour.Photo.2002.1080p.BluRay.DTS.x265-10bit 8.37GB

2021年09月14日 15:07:56     电影发布:来源于网络     电影分类:欧美电影     评论(0)    

一小时快照[中文字幕].One.Hour.Photo.2002.1080p.BluRay.DTS.x265 10bit 8.37GB 惊悚片 剧情片 欧美电影  第1张

◎译 名 一小时快照 / 冲印店的险情 / 一小时快相 / 不速之客 / 恋相狂

◎片 名 One Hour Photo

◎年 代 2002

◎产 地 美国

◎类 别 剧情 / 惊悚

◎语 言 英语

◎上映日期 2002-11-26

◎IMDb链接 https://www.imdb.com/title/tt0265459/

◎豆瓣评分 7.1/10 (2580人评价)

◎豆瓣链接 https://movie.douban.com/subject/1295883/

◎片 长 96 分钟

◎导 演 马克·罗曼尼克 Mark Romanek (id:1049687)

◎编 剧 马克·罗曼尼克 Mark Romanek (id:1049687)

◎演 员 罗宾·威廉姆斯 Robin Williams (id:1009241)

康妮·尼尔森 Connie Nielsen (id:1009298)

迈克尔·瓦尔坦 Michael Vartan (id:1036353)

戴兰·史密斯 Dylan Smith (id:1155214)

爱琳·丹尼尔斯 Erin Daniels (id:1027298)

盖瑞·科尔 Gary Cole (id:1049563)

马克·罗曼尼克 Mark Romanek (id:1049687)

迈克·艾可欣 Michael Axinn (id:1277612)

◎标 签 美国 / 悬疑 / 惊悚 / 美国电影 / 剧情 / RobinWilliams / 2002 / 犯罪

◎简 介

西摩·帕里什(罗宾·威廉姆斯 Robin Williams 饰)是一家大型冲印店的普通职员,四十多岁了,一直过着孤独的单身生活,但是在他心中,一直对幸福美满的家庭有着梦想,不知从什么时候起,这份梦想被投射到熟客尤金一家身上。尤金太太妮娜(康妮·尼尔森 Connie Ni elsen 饰)美丽优雅,男主人威尔(迈克尔·瓦尔坦 Michael Vartan 饰)事业有成,他们还有个可爱的孩子——全是西蒙想得而不得的。西摩开始幻想自己是这家的一员,是可亲的“西蒙叔叔”,他还把这家人送来洗印的照片都偷偷拷贝一份私藏,事情败露后遭到解雇,但只是刺激他更加过分地接近和偷窥这一家人,在发现男主人竟然有外遇时,西蒙愤怒了,他开始着手进行惩罚,只因他梦想中的完美不容任何人破坏……

◎获奖情况 (共2项)

第18届圣丹斯电影节 (2002)

评审团大奖 剧情片(提名)

└──马克·罗曼尼克 (id:1049687)

第55届洛迦诺国际电影节 (2002)

金豹奖(提名)

└──马克·罗曼尼克 (id:1049687)

  1. ##### MediaInfo ######

  2. General

  3. Unique ID : 213565450108235014601394500265036139067 (0xA0AB35A4BDB4E8F0C80DAB77F2CACA3B)

  4. Complete name : One.Hour.Photo.2002.1080p.BluRay.DTS.x265-10bit-10007@BBQDDQ.COM.mkv

  5. Format : Matroska

  6. Format version : Version 4

  7. File size : 8.37 GiB

  8. Duration : 1 h 36 min

  9. Overall bit rate mode : Variable

  10. Overall bit rate : 12.5 Mb/s

  11. Movie name : Click 2006 1080p BluRay DD5.1 x265-10bit-10007@BBQDDQ.COM

  12. Encoded date : UTC 2021-09-02 05:40:39

  13. Writing application : mkvmerge v38.0.0 ('The Silent Type') 64-bit

  14. Writing library : libebml v1.3.9 + libmatroska v1.5.2


  15. Video

  16. ID : 1

  17. Format : HEVC

  18. Format/Info : High Efficiency Video Coding

  19. Format profile : Main 10@L5.1@High

  20. Codec ID : V_MPEGH/ISO/HEVC

  21. Duration : 1 h 36 min

  22. Bit rate : 8 694 kb/s

  23. Width : 1 920 pixels

  24. Height : 1 040 pixels

  25. Display aspect ratio : 1.85:1

  26. Frame rate mode : Constant

  27. Frame rate : 23.976 (24000/1001/53354) FPS

  28. Color space : YUV

  29. Chroma subsampling : 4:2:0

  30. Bit depth : 10 bits

  31. Bits/(Pixel*Frame) : 0.182

  32. Stream size : 5.83 GiB (70%)

  33. Title : biki@HDSky

  34. Writing library : x265 - H.265/HEVC codec

  35. Default : Yes

  36. Forced : No


  37. Audio

  38. ID : 2

  39. Format : DTS XLL

  40. Format/Info : Digital Theater Systems

  41. Commercial name : DTS-HD Master Audio

  42. Codec ID : A_DTS

  43. Duration : 1 h 36 min

  44. Bit rate mode : Variable

  45. Bit rate : 3 773 kb/s

  46. Channel(s) : 6 channels

  47. Channel layout : C L R Ls Rs LFE

  48. Sampling rate : 48.0 kHz

  49. Frame rate : 93.750 FPS (512 SPF)

  50. Bit depth : 24 bits

  51. Compression mode : Lossless

  52. Stream size : 2.53 GiB (30%)

  53. Title : English

  54. Language : English

  55. Default : Yes

  56. Forced : No


  57. Text

  58. ID : 3

  59. Format : PGS

  60. Muxing mode : zlib

  61. Codec ID : S_HDMV/PGS

  62. Codec ID/Info : Picture based subtitle format used on BDs/HD-DVDs

  63. Duration : 1 h 26 min

  64. Bit rate : 24.9 kb/s

  65. Count of elements : 1413

  66. Stream size : 15.4 MiB (0%)

  67. Title : CHS

  68. Language : Chinese

  69. Default : Yes

  70. Forced : No


文件下载


除非特别注明,本文『一小时快照[中文字幕].One.Hour.Photo.2002.1080p.BluRay.DTS.x265-10bit 8.37GB』来源于互联网机器人自动抓取,非本站原创。 浮游电影网不对本文拥有版权,如有侵犯,请联系邮箱:fuyouu#yandex.com[#换成@]投诉。我们会在15个工作日内删除。 但烦请转载时请标明出处:“本文转载于『浮游电影网』,原文地址:https://www.fuyouu.com/14355.html

评论吧骚年!

发表你的见解   

昵称*

E-mail*(建议输入,以便收到博主回复的提示邮件)

验证码*

您可以使用eMule或eMule Mod(Windows)、aMule(Win、Linux、Mac)等软件下载eD2k链接。。
eMule收藏集(.emulecollection)文件是您选中的所有链接的列表文件。eMule可以直接下载它们。
按住SHIFT键选择可以选中多个选择框。
可用文件名和大小选择器来选择文件。
文件名选择器帮您根据文件名称或后缀来选择文件。不分大小写。
符号使用:
和:空格( )、+
不包含:-
或:|
转义:一对英文引号("");
匹配开头:^
匹配结尾:$
例如:
选中所有名称中包含有“eMule”或“0.49c”字眼,但不包含有“exe”字眼的:emule|0.49c -exe
选中所有名称的开头是“eMule”,结尾是“0.49c”的:^emule 0.49c$
选中所有名称中带有“eMule 0.49c”的(必须是“eMule 0.49c”,中间没有别的字符,不能是“eMule fake 0.49c”),需要转义:"emule 0.49c"
大小选择器帮您根据文件大小选择文件。