当前位置: 首页 >> 欧美电影 >> 大白鲨2[简体字幕].Jaws.2.1978.1080p.BluRay.x265.10bit.FLAC.2.0.MNHD 6.68GB >> 正文

大白鲨2[简体字幕].Jaws.2.1978.1080p.BluRay.x265.10bit.FLAC.2.0.MNHD 6.68GB

2021年09月14日 15:05:17     电影发布:来源于网络     电影分类:欧美电影     评论(0)    

大白鲨2[简体字幕].Jaws.2.1978.1080p.BluRay.x265.10bit.FLAC.2.0.MNHD 6.68GB 恐怖片 冒险片 惊悚片 欧美电影  第1张

◎译 名 大白鲨2 / 大白鲨续集

◎片 名 Jaws 2

◎年 代 1978

◎产 地 美国

◎类 别 惊悚 / 恐怖 / 冒险

◎语 言 英语

◎上映日期 1978-06-16

◎IMDb链接 https://www.imdb.com/title/tt0077766/

◎豆瓣评分 6.4/10 (4517人评价)

◎豆瓣链接 https://movie.douban.com/subject/1297242/

◎片 长 116 分钟

◎导 演 吉诺特·兹瓦克 Jeannot Szwarc (id:1041377)

◎编 剧 彼得·本奇利 Peter Benchley (id:1045172)

卡尔·哥特列布 Carl Gottlieb (id:1032187)

霍华德·塞克勒 Howard Sackler (id:1037686)

◎演 员 罗伊·谢德 Roy Scheider (id:1041132)

洛兰·加里 Lorraine Gary (id:1090990)

莫瑞·汉密尔顿 Murray Hamilton (id:1098143)

约瑟夫·马斯科洛 Joseph Mascolo (id:1115976)

杰弗瑞·克莱默 Jeffrey Kramer (id:1009694)

科林·威克斯·帕斯顿 Collin Wilcox Paxton (id:1005028)

Ann Dusenberry Ann Dusenberry (id:1090533)

马克·古鲁内尔 Mark Gruner (id:1094070)

巴里·科 Barry Coe (id:1070521)

Susan French Susan French (id:1080823)

加里·斯普林格 Gary Springer (id:1023304)

唐娜·威尔克斯 Donna Wilkes (id:1164018)

加里·杜宾 Gary Dubin (id:1087320)

John Dukakis John Dukakis (id:1086480)

David Elliott David Elliott (id:1010035)

Marc Gilpin Marc Gilpin (id:1098789)

基斯·戈登 Keith Gordon (id:1004743)

Billy Van Zandt Billy Van Zandt (id:1036752)

Jerry M. Baxter Jerry M. Baxter (id:1063349)

April Gilpin April Gilpin (id:1092427)

Herb Muller Herb Muller (id:1135029)

大卫·布朗 David Brown (id:1071554)

理查德·D·扎努克 Richard D. Zanuck (id:1036816)

乔·阿尔夫斯 Joe Alves (id:1018632)

约翰·威廉姆斯 John Williams (id:1054692)

阿瑟·施密特 Arthur Schmidt (id:1296896)

尼尔·特拉维斯 Neil Travis (id:1299480)

乔·阿尔夫斯 Joe Alves (id:1018632)

菲尔·艾布拉姆森 Phil Abramson (id:1276763)

W·斯图尔特·坎贝尔 W. Stewart Campbell (id:1279996)

Bill Jobe Bill Jobe (id:1287742)

Ron Snyder Ron Snyder (id:1160389)

Robert Jiras Robert Jiras (id:1026086)

里克·夏普 Rick Sharp (id:1297349)

菲利浦·莱托 Philip Leto (id:1289853)

乔·阿尔夫斯 Joe Alves (id:1018632)

Scott Maitland Scott Maitland (id:1290769)

◎标 签 惊悚 / 美国 / 灾难 / 恐怖 / 大白鲨2 / 大白鲨 / 美国电影 / 1978

◎简 介

影片故事背景一如上集,主要人物布迪警长亦由上集的罗伊·谢德扮演,但是今次出现肆虐艾密迪海滩的大白鲨,却是一条满含恨意,一心前来报“杀夫之仇”的母鲨。

  1. ##### MediaInfo ######

  2. General

  3. Unique ID : 337762342005823496202832054933684955095 (0xFE1AA92DD41A4F4FD0CF6E95CDCF27D7)

  4. Complete name : Jaws.2.1978.1080p.BluRay.x265.10bit.FLAC.2.0.MNHD-10018@BBQDDQ.COM.mkv

  5. Format : Matroska

  6. Format version : Version 4

  7. File size : 6.68 GiB

  8. Duration : 1 h 56 min

  9. Overall bit rate mode : Variable

  10. Overall bit rate : 8 229 kb/s

  11. Movie name : Jaws.2.1978.1080p.BluRay.x265.10bit.FLAC.2.0.MNHD-10018@BBQDDQ.COM

  12. Encoded date : UTC 2021-09-11 07:20:09

  13. Writing application : mkvmerge v53.0.0 ('Fool's Gold') 64-bit

  14. Writing library : libebml v1.4.1 + libmatroska v1.6.2


  15. Video

  16. ID : 1

  17. Format : HEVC

  18. Format/Info : High Efficiency Video Coding

  19. Format profile : Main 10@L5.1@High

  20. Codec ID : V_MPEGH/ISO/HEVC

  21. Duration : 1 h 56 min

  22. Bit rate : 7 831 kb/s

  23. Width : 1 912 pixels

  24. Height : 816 pixels

  25. Display aspect ratio : 2.35:1

  26. Frame rate mode : Constant

  27. Frame rate : 23.976 (24000/1001/53354) FPS

  28. Color space : YUV

  29. Chroma subsampling : 4:2:0

  30. Bit depth : 10 bits

  31. Bits/(Pixel*Frame) : 0.209

  32. Stream size : 6.36 GiB (95%)

  33. Writing library : x265 3.5+1-f0c1022b6:[Linux][GCC 9.3.0][64 bit] 10bit

  34. Encoding settings : cpuid=533541111039 / frame-threads=3 / numa-pools=11 / wpp / pmode / no-pme / no-psnr / no-ssim / log-level=2 / input-csp=1 / input-res=1912x816 / interlace=0 / total-frames=167244 / level-idc=0 / high-tier=1 / uhd-bd=0 / ref=4 / no-allow-non-conformance / no-repeat-headers / annexb / no-aud / no-hrd / info / hash=0 / no-temporal-layers / no-open-gop / min-keyint=1 / keyint=250 / gop-lookahead=0 / bframes=6 / b-adapt=2 / b-pyramid / bframe-bias=0 / rc-lookahead=80 / lookahead-slices=0 / NTMzNTQ=uuDQuD2mJt9fsCf / scenecut=40 / hist-scenecut=0 / radl=0 / no-splice / no-intra-refresh / ctu=32 / min-cu-size=8 / no-rect / no-amp / max-tu-size=32 / tu-inter-depth=4 / tu-intra-depth=4 / limit-tu=0 / rdoq-level=2 / dynamic-rd=0.00 / no-ssim-rd / signhide / no-tskip / nr-intra=0 / nr-inter=0 / no-constrained-intra / strong-intra-smoothing / max-merge=5 / limit-refs=0 / no-limit-modes / me=3 / subme=7 / merange=57 / temporal-mvp / no-frame-dup / no-hme / weightp / weightb / no-analyze-src-pics / deblock=-3:-3 / no-sao / no-sao-non-deblock / rd=4 / selective-sao=0 / no-early-skip / no-rskip / no-fast-intra / no-tskip-fast / no-cu-lossless / b-intra / no-splitrd-skip / rdpenalty=0 / psy-rd=1.50 / psy-rdoq=1.00 / no-rd-refine / no-lossless / cbqpoffs=-2 / crqpoffs=-2 / rc=crf / crf=23.4 / qcomp=0.65 / qpstep=4 / stats-write=0 / stats-read=0 / vbv-maxrate=160000 / vbv-bufsize=160000 / vbv-init=0.9 / min-vbv-fullness=50.0 / max-vbv-fullness=80.0 / crf-max=0.0 / crf-min=0.0 / ipratio=1.30 / pbratio=1.20 / aq-mode=1 / aq-strength=1.00 / no-cutree / zone-count=0 / no-strict-cbr / qg-size=8 / no-rc-grain / qpmax=69 / qpmin=0 / no-const-vbv / sar=0 / overscan=0 / videoformat=5 / range=0 / colorprim=1 / transfer=1 / colormatrix=1 / chromaloc=0 / display-window=0 / cll=0,0 / min-luma=0 / max-luma=1023 / log2-max-poc-lsb=8 / vui-timing-info / vui-hrd-info / slices=1 / no-opt-qp-pps / no-opt-ref-list-length-pps / no-multi-pass-opt-rps / scenecut-bias=0.05 / hist-threshold=0.03 / no-opt-cu-delta-qp / no-aq-motion / no-hdr10 / no-hdr10-opt / no-dhdr10-opt / no-idr-recovery-sei / analysis-reuse-level=0 / analysis-save-reuse-level=0 / analysis-load-reuse-level=0 / scale-factor=0 / refine-intra=0 / refine-inter=0 / refine-mv=1 / refine-ctu-distortion=0 / no-limit-sao / ctu-info=0 / no-lowpass-dct / refine-analysis-type=0 / copy-pic=1 / max-ausize-factor=1.0 / no-dynamic-refine / no-single-sei / no-hevc-aq / no-svt / no-field / qp-adaptation-range=1.00 / scenecut-aware-qp=0conformance-window-offsets / right=0 / bottom=0 / NTMzNTQ= / decoder-max-rate=0 / no-vbv-live-multi-pass

  35. Default : Yes

  36. Forced : No

  37. Color range : Limited

  38. Color primaries : BT.709

  39. Transfer characteristics : BT.709

  40. Matrix coefficients : BT.709


  41. Audio

  42. ID : 2

  43. Format : FLAC

  44. Format/Info : Free Lossless Audio Codec

  45. Codec ID : A_FLAC

  46. Duration : 1 h 56 min

  47. Bit rate mode : Variable

  48. Bit rate : 387 kb/s

  49. Channel(s) : 2 channels

  50. Channel layout : L R

  51. Sampling rate : 48.0 kHz

  52. Frame rate : 11.719 FPS (4096 SPF)

  53. Bit depth : 16 bits

  54. Compression mode : Lossless

  55. Stream size : 321 MiB (5%)

  56. Writing library : libFLAC 1.2.1 (UTC 2007-09-17)

  57. Language : English

  58. Default : Yes

  59. Forced : No


  60. Text #1

  61. ID : 3

  62. Format : UTF-8

  63. Codec ID : S_TEXT/UTF8

  64. Codec ID/Info : UTF-8 Plain Text

  65. Duration : 1 h 49 min

  66. Bit rate : 199 b/s

  67. Count of elements : 1273

  68. Stream size : 160 KiB (0%)

  69. Title : Chinese (Simplified)&English

  70. Language : Chinese

  71. Default : Yes

  72. Forced : No


  73. Text #2

  74. ID : 4

  75. Format : PGS

  76. Muxing mode : zlib

  77. Codec ID : S_HDMV/PGS

  78. Codec ID/Info : Picture based subtitle format used on BDs/HD-DVDs

  79. Duration : 1 h 50 min

  80. Bit rate : 31.3 kb/s

  81. Count of elements : 2724

  82. Stream size : 24.8 MiB (0%)

  83. Title : en

  84. Language : English

  85. Default : No

  86. Forced : No


  87. Menu

  88. 00:00:00.000 : en:Chapter 01

  89. 00:02:05.125 : en:Chapter 02

  90. 00:04:50.040 : en:Chapter 03

  91. 00:12:29.457 : en:Chapter 04

  92. 00:18:15.970 : en:Chapter 05

  93. 00:27:26.812 : en:Chapter 06

  94. 00:34:28.024 : en:Chapter 07

  95. 00:41:00.792 : en:Chapter 08

  96. 00:56:59.875 : en:Chapter 09

  97. 01:01:30.520 : en:Chapter 10

  98. 01:11:55.228 : en:Chapter 11

  99. 01:16:27.875 : en:Chapter 12

  100. 01:22:33.198 : en:Chapter 13

  101. 01:29:46.506 : en:Chapter 14

  102. 01:41:16.904 : en:Chapter 15

  103. 01:43:14.397 : en:Chapter 16

  104. 01:48:01.517 : en:Chapter 17

  105. 01:53:29.720 : en:Chapter 18



文件下载


除非特别注明,本文『大白鲨2[简体字幕].Jaws.2.1978.1080p.BluRay.x265.10bit.FLAC.2.0.MNHD 6.68GB』来源于互联网机器人自动抓取,非本站原创。 浮游电影网不对本文拥有版权,如有侵犯,请联系邮箱:fuyouu#yandex.com[#换成@]投诉。我们会在15个工作日内删除。 但烦请转载时请标明出处:“本文转载于『浮游电影网』,原文地址:https://www.fuyouu.com/14354.html

评论吧骚年!

发表你的见解   

昵称*

E-mail*(建议输入,以便收到博主回复的提示邮件)

验证码*

您可以使用eMule或eMule Mod(Windows)、aMule(Win、Linux、Mac)等软件下载eD2k链接。。
eMule收藏集(.emulecollection)文件是您选中的所有链接的列表文件。eMule可以直接下载它们。
按住SHIFT键选择可以选中多个选择框。
可用文件名和大小选择器来选择文件。
文件名选择器帮您根据文件名称或后缀来选择文件。不分大小写。
符号使用:
和:空格( )、+
不包含:-
或:|
转义:一对英文引号("");
匹配开头:^
匹配结尾:$
例如:
选中所有名称中包含有“eMule”或“0.49c”字眼,但不包含有“exe”字眼的:emule|0.49c -exe
选中所有名称的开头是“eMule”,结尾是“0.49c”的:^emule 0.49c$
选中所有名称中带有“eMule 0.49c”的(必须是“eMule 0.49c”,中间没有别的字符,不能是“eMule fake 0.49c”),需要转义:"emule 0.49c"
大小选择器帮您根据文件大小选择文件。