当前位置: 首页 >> 海外电影 >> 狗不穿裤子[中文字幕].Dogs.Don't.Wear.Pants.2019.1080p.BluRay.DTS.x265-10bit 7.02GB >> 正文

狗不穿裤子[中文字幕].Dogs.Don't.Wear.Pants.2019.1080p.BluRay.DTS.x265-10bit 7.02GB

2021年09月14日 15:03:26     电影发布:来源于网络     电影分类:海外电影     评论(0)    

狗不穿裤子[中文字幕].Dogs.Dont.Wear.Pants.2019.1080p.BluRay.DTS.x265 10bit 7.02GB 爱情片 剧情片 海外电影  第1张

◎译 名 狗不穿裤子 / 窒爱诊疗室(台) / Dogs Don’t Wear Pants

◎片 名 Koirat eiv?t k?yt? housuja

◎年 代 2019

◎产 地 芬兰 / 拉脱维亚

◎类 别 剧情 / 爱情

◎语 言 芬兰语

◎上映日期 2019-05-21(戛纳电影节) / 2019-11-01(芬兰)

◎IMDb链接 https://www.imdb.com/title/tt9074574/

◎豆瓣评分 6.2/10 (1334人评价)

◎豆瓣链接 https://movie.douban.com/subject/30352696/

◎片 长 106分钟

◎导 演 J-P·瓦尔科帕 J.-P. Valkeap?? (id:1308207)

◎编 剧 J-P·瓦尔科帕 J.-P. Valkeap?? (id:1308207)

◎演 员 佩卡·斯特朗 Pekka Strang (id:1201904)

Ester Geislerova Ester Geislerova (id:1097468)

亚尼·沃拉宁 Jani Volanen (id:1162443)

乌娜·艾罗拉 Oona Airola (id:1357947)

克里斯塔·科索恩 Krista Kosonen (id:1174014)

埃娃·索伊沃 Eeva Soivio (id:1218558)

Ilkka Vanne Ilkka Vanne (id:1004527)

Tomi Salmela Tomi Salmela (id:1143163)

安东斯·巴伦斯基 Antons Baronskis (id:1425088)

◎标 签 芬兰 / 黑色幽默 / 剧情 / 2019 / 拉脱维亚 / 戛纳电影节72th / 爱情 / 喜剧

◎简 介

在一次带着幼女和妻子郊外度假过程中,医生的为了营救下湖游泳被水中渔网缠住溺死的妻子,几乎窒息而死幸被救。若干年后,一次无意中接触到BDSM,受虐中的窒息感觉,让医生恍惚中回到营救妻子的水下,这种感觉让医生爱上受虐。于是,一发不可收拾,在一次差点窒息而死的受虐中,施虐女不愿继续,但医生苦苦相求,更是跟随其进入一个BDSM酒吧。

◎获奖情况 (共1项)

第72届戛纳电影节 (2019)

导演双周单元(提名)

└──J-P·瓦尔科帕 (id:1308207)

  1. ##### MediaInfo ######

  2. General

  3. Unique ID : 264938561874198520527129802219507584784 (0xC7514F9BF7F1C18E35878564F2AA8F10)

  4. Complete name : Dogs.Don't.Wear.Pants.2019.1080p.BluRay.DTS.x265-10bit-10007@BBQDDQ.COM.mkv

  5. Format : Matroska

  6. Format version : Version 4

  7. File size : 7.02 GiB

  8. Duration : 1 h 44 min

  9. Overall bit rate : 9 609 kb/s

  10. Movie name : Dogs Don't Wear Pants 2019 1080p BluRay DTS x265-10bit-10007@BBQDDQ.COM

  11. Encoded date : UTC 2021-09-11 07:46:45

  12. Writing application : mkvmerge v38.0.0 ('The Silent Type') 64-bit

  13. Writing library : libebml v1.3.9 + libmatroska v1.5.2


  14. Video

  15. ID : 1

  16. Format : HEVC

  17. Format/Info : High Efficiency Video Coding

  18. Format profile : Main 10@L5.1@High

  19. Codec ID : V_MPEGH/ISO/HEVC

  20. Duration : 1 h 44 min

  21. Bit rate : 8 829 kb/s

  22. Width : 1 920 pixels

  23. Height : 804 pixels

  24. Display aspect ratio : 2.40:1

  25. Frame rate mode : Constant

  26. Frame rate : 24.000 FPS

  27. Color space : YUV

  28. Chroma subsampling : 4:2:0

  29. Bit depth : 10 bits

  30. Bits/(Pixel*Frame) : 0.238

  31. Stream size : 6.45 GiB (92%)

  32. Title : @HDSky

  33. Writing library : x265 - H.265/HEVC codec

  34. Default : Yes

  35. Forced : No


  36. Audio

  37. ID : 2

  38. Format : DTS

  39. Format/Info : Digital Theater Systems

  40. Codec ID : A_DTS

  41. Duration : 1 h 44 min

  42. Bit rate mode : Constant

  43. Bit rate : 768 kb/s

  44. Channel(s) : 6 channels

  45. Channel layout : C L R Ls Rs LFE

  46. Sampling rate : 48.0 kHz

  47. Frame rate : 93.750 FPS (512 SPF)

  48. Bit depth : 24 bits

  49. Compression mode : Lossy

  50. Stream size : 574 MiB (8%)

  51. Title : English

  52. Language : English

  53. Default : Yes

  54. Forced : No


  55. Text #1

  56. ID : 3

  57. Format : PGS

  58. Muxing mode : zlib

  59. Codec ID : S_HDMV/PGS

  60. Codec ID/Info : Picture based subtitle format used on BDs/HD-DVDs

  61. Duration : 1 h 43 min

  62. Bit rate : 10.0 kb/s

  63. Count of elements : 1046

  64. Stream size : 7.43 MiB (0%)

  65. Title : CHS

  66. Language : Chinese

  67. Default : Yes

  68. Forced : No


  69. Text #2

  70. ID : 4

  71. Format : PGS

  72. Muxing mode : zlib

  73. Codec ID : S_HDMV/PGS

  74. Codec ID/Info : Picture based subtitle format used on BDs/HD-DVDs

  75. Duration : 1 h 43 min

  76. Bit rate : 10.2 kb/s

  77. Count of elements : 1046

  78. Stream size : 7.59 MiB (0%)

  79. Title : CHT

  80. Language : Chinese

  81. Default : No

  82. Forced : No


  83. Menu

  84. 00:00:00.000 : en:Chapter 01

  85. 00:07:10.792 : en:Chapter 02

  86. 00:18:02.542 : en:Chapter 03

  87. 00:27:08.208 : en:Chapter 04

  88. 00:34:21.417 : en:Chapter 05

  89. 00:43:03.292 : en:Chapter 06

  90. 00:50:24.375 : en:Chapter 07

  91. 01:01:57.208 : en:Chapter 08

  92. 01:07:29.042 : en:Chapter 09

  93. 01:17:24.750 : en:Chapter 10

  94. 01:30:59.417 : en:Chapter 11

  95. 01:36:20.458 : en:Chapter 12

  96. 01:41:15.208 : en:Chapter 13


文件下载


除非特别注明,本文『狗不穿裤子[中文字幕].Dogs.Don't.Wear.Pants.2019.1080p.BluRay.DTS.x265-10bit 7.02GB』来源于互联网机器人自动抓取,非本站原创。 浮游电影网不对本文拥有版权,如有侵犯,请联系邮箱:fuyouu#yandex.com[#换成@]投诉。我们会在15个工作日内删除。 但烦请转载时请标明出处:“本文转载于『浮游电影网』,原文地址:https://www.fuyouu.com/14353.html

评论吧骚年!

发表你的见解   

昵称*

E-mail*(建议输入,以便收到博主回复的提示邮件)

验证码*

您可以使用eMule或eMule Mod(Windows)、aMule(Win、Linux、Mac)等软件下载eD2k链接。。
eMule收藏集(.emulecollection)文件是您选中的所有链接的列表文件。eMule可以直接下载它们。
按住SHIFT键选择可以选中多个选择框。
可用文件名和大小选择器来选择文件。
文件名选择器帮您根据文件名称或后缀来选择文件。不分大小写。
符号使用:
和:空格( )、+
不包含:-
或:|
转义:一对英文引号("");
匹配开头:^
匹配结尾:$
例如:
选中所有名称中包含有“eMule”或“0.49c”字眼,但不包含有“exe”字眼的:emule|0.49c -exe
选中所有名称的开头是“eMule”,结尾是“0.49c”的:^emule 0.49c$
选中所有名称中带有“eMule 0.49c”的(必须是“eMule 0.49c”,中间没有别的字符,不能是“eMule fake 0.49c”),需要转义:"emule 0.49c"
大小选择器帮您根据文件大小选择文件。