当前位置: 首页 >> 国产电影 >> 非凡任务[国语配音/中文字幕].Extraordinary.Mission.2017.1080p.BluRay.x265.10bit.DTS 9.01GB >> 正文

非凡任务[国语配音/中文字幕].Extraordinary.Mission.2017.1080p.BluRay.x265.10bit.DTS 9.01GB

2021年09月14日 13:27:55     电影发布:来源于网络     电影分类:国产电影     评论(0)    

非凡任务[国语配音/中文字幕].Extraordinary.Mission.2017.1080p.BluRay.x265.10bit.DTS 9.01GB 犯罪片 动作片 剧情片 国产电影  第1张

◎译 名 非凡任务 / 猎鹰 / Extraordinary Mission

◎年 代 2017

◎产 地 中国大陆

◎类 别 剧情 / 动作 / 犯罪

◎语 言 汉语普通话

◎上映日期 2017-03-31(中国大陆)

◎IMDb链接 https://www.imdb.com/title/tt6690310/

◎豆瓣评分 6.3/10 (64951人评价)

◎豆瓣链接 https://movie.douban.com/subject/26616690/

◎片 长 122分钟

◎导 演 麦兆辉 Alan Mak (id:1126158)

潘耀明 Anthony Pun (id:1307639)

◎编 剧 庄文强 Felix Chong (id:1014716)

◎演 员 黄轩 Xuan Huang (id:1276105)

段奕宏 Yihong Duan (id:1274291)

郎月婷 Yueting Lang (id:1330484)

祖峰 Feng Zu (id:1313650)

邢佳栋 Jiadong Xing (id:1274762)

王耀庆 David Wang (id:1316330)

王砚辉 Yanhui Wang (id:1322085)

丁勇岱 Yongdai Ding (id:1314975)

肖聪 Cong Xiao (id:1319169)

李晓川 Xiaochuan Li (id:1315668)

赵铭岳 Mingyue Zhao (id:1326947)

代乐乐 Lele Dai (id:1275749)

陶海 Hai Tao (id:1316784)

伍国宝 Guobao Wu (id:1421259)

郭紫铭 Ziming Guo (id:1387008)

马晶晶 Jingjing Ma (id:1410276)

吴永超 Neil Wu (id:1394013)

李忠志 Chung Chi Li (id:1014763)

◎标 签 缉毒 / 动作 / 警匪 / 犯罪 / 中国大陆 / 卧底 / 毒品 / 2017

◎简 介

国境边陲云来市,卧底林凯(黄轩 饰)在随老大程毅(王砚辉 饰)交易时,遭到缉毒警突袭。危急时刻,林凯救下对方毒品贩子,随后一路被挟持到金三角,来到了狡猾狠毒的毒枭老鹰(段奕宏 饰)的巢穴。老鹰恼羞成怒,派儿子和林凯回到云来市,要查清究竟是谁吞了自己的钱和货。几番交手过后,林凯占据主动,要求老鹰将大中华地区的毒品经营权交给自己,实则是为了更进一步接近老鹰,以将这群犯罪分子一网打尽。从走出警校那一天,他便将自己的性命交给了国家和人民,所以必须抛弃原来的身份,以毒贩的嘴脸在这个罪恶横生的世界穿行。

没有回头之路,国法的捍卫者只有勇往直行……

◎获奖情况 (共1项)

第4届豆瓣电影年度榜单 (2017)

4月最受关注电影(提名)

  1. ##### MediaInfo ######

  2. General

  3. Unique ID : 37300849836739843222423384339070986683 (0x1C0FE1E2AEFEF7426F07DFF3126229BB)

  4. Complete name : Extraordinary.Mission.2017.1080p.BluRay.x265.10bit.DTS-10017@BBQDDQ.COM.mkv

  5. Format : Matroska

  6. Format version : Version 4

  7. File size : 9.01 GiB

  8. Duration : 2 h 1 min

  9. Overall bit rate : 10.6 Mb/s

  10. Movie name : Extraordinary Mission - Blu-ray?

  11. Encoded date : UTC 2021-09-11 18:48:32

  12. Writing application : mkvmerge v61.0.0 ('So') 64-bit

  13. Writing library : libebml v1.4.2 + libmatroska v1.6.4

  14. Cover : Yes

  15. Attachments : cover.jpg / WenQuanWeiMiHei-1.ttf


  16. Video

  17. ID : 1

  18. Format : HEVC

  19. Format/Info : High Efficiency Video Coding

  20. Format profile : Main 10@L4@Main

  21. Codec ID : V_MPEGH/ISO/HEVC

  22. Duration : 2 h 1 min

  23. Bit rate : 9 092 kb/s

  24. Width : 1 920 pixels

  25. Height : 804 pixels

  26. Display aspect ratio : 2.40:1

  27. Frame rate mode : Constant

  28. Frame rate : 24.000 FPS

  29. Color space : YUV

  30. Chroma subsampling : 4:2:0

  31. Bit depth : 10 bits

  32. Bits/(Pixel*Frame) : 0.245

  33. Stream size : 7.71 GiB (86%)

  34. Writing library : x265 3.5+2-g2b25c9ba0+45:[Windows][GCC 10.2.0][64 bit] Yuuki 10bit+8bit+12bit

  35. Encoding settings : rc=crf / crf=18.0000 / qcomp=0.65 / qpstep=4 / stats-write=0 / stats-read=0 / no-lossless / no-cu-lossless / aq-mode=3 / aq-strength=0.80 / cbqpoffs=0 / crqpoffs=0 / ipratio=1.40 / pbratio=1.30 / psy-rd=2.00 / psy-rdoq=0.00 / deblock=0:0 / ref=6 / limit-refs=1 / no-limit-modes / bframes=8 / b-adapt=2 / bframe-bias=0 / b-pyramid / b-intra / weightp / weightb / min-keyint=24 / max-keyint=240 / rc-lookahead=24 / gop-lookahead=0 / NTMzNTQ=uuDQuD2mJt9fsCf / scenecut=40 / hist-scenecut=0 / radl=0 / max-cu-size=64 / min-cu-size=8 / me=3 / subme=7 / merange=48 / rdoq-level=0 / rd=4 / rdpenalty=0 / dynamic-rd=0.00 / no-rd-refine / ----- / cutree / sao / no-rect / no-amp / no-open-gop / wpp / no-pmode / pme / no-psnr / no-ssim / nr-intra=0 / nr-inter=0 / no-constrained-intra / no-strong-intra-smoothing / max-tu-size=32 / tu-inter-depth=1 / tu-intra-depth=1 / limit-tu=0 / qg-size=32 / qpmax=69 / qpmin=0 / ----- / cpuid=533541111039 / frame-threads=4 / numa-pools=+ / log-level=2 / input-csp=1 / input-res=1920x804 / interlace=0 / level-idc=0 / high-tier=1 / uhd-bd=0 / no-allow-non-conformance / no-repeat-headers / aud / no-hrd / info / hash=0 / no-temporal-layers / lookahead-slices=0 / no-splice / no-intra-refresh / no-ssim-rd / signhide / no-tskip / max-merge=3 / temporal-mvp / no-frame-dup / no-hme / no-analyze-src-pics / no-sao-non-deblock / selective-sao=4 / early-skip / rskip / no-fast-intra / no-tskip-fast / no-splitrd-skip / zone-count=0 / no-strict-cbr / no-rc-grain / no-const-vbv / sar=0 / overscan=0 / videoformat=5 / range=0 / colorprim=2 / transfer=2 / colormatrix=2 / chromaloc=0 / display-window=0 / cll=0,0 / min-luma=0 / max-luma=1023 / log2-max-poc-lsb=8 / vui-timing-info / vui-hrd-info / slices=1 / no-opt-qp-pps / no-opt-ref-list-length-pps / no-multi-pass-opt-rps / scenecut-bias=0.05 / hist-threshold=0.03 / no-opt-cu-delta-qp / no-aq-motion / no-hdr10 / no-hdr10-opt / no-dhdr10-opt / no-idr-recovery-sei / analysis-reuse-level=0 / analysis-save-reuse-level=0 / analysis-load-reuse-level=0 / scale-factor=0 / refine-intra=0 / refine-inter=0 / refine-mv=1 / refine-ctu-distortion=0 / no-limit-sao / ctu-info=0 / no-lowpass-dct / refine-analysis-type=0 / copy-pic=1 / max-ausize-factor=1.0 / no-dynamic-refine / no-single-sei / no-hevc-aq / no-svt / no-field / qp-adaptation-range=1.00 / scenecut-aware-qp=0conformance-window-offsets / right=0 / bottom=0 / NTMzNTQ= / decoder-max-rate=0 / no-vbv-live-multi-pass

  36. Default : Yes

  37. Forced : No


  38. Audio

  39. ID : 2

  40. Format : DTS

  41. Format/Info : Digital Theater Systems

  42. Codec ID : A_DTS

  43. Duration : 2 h 1 min

  44. Bit rate mode : Constant

  45. Bit rate : 1 510 kb/s

  46. Channel(s) : 6 channels

  47. Channel layout : C L R Ls Rs LFE

  48. Sampling rate : 48.0 kHz

  49. Frame rate : 93.750 FPS (512 SPF)

  50. Bit depth : 24 bits

  51. Compression mode : Lossy

  52. Stream size : 1.28 GiB (14%)

  53. Language : Chinese

  54. Default : Yes

  55. Forced : No


  56. Text #1

  57. ID : 3

  58. Format : ASS

  59. Codec ID : S_TEXT/ASS

  60. Codec ID/Info : Advanced Sub Station Alpha

  61. Duration : 1 h 53 min

  62. Bit rate : 42 b/s

  63. Count of elements : 897

  64. Compression mode : Lossless

  65. Stream size : 35.3 KiB (0%)

  66. Title : chs

  67. Language : Chinese

  68. Default : Yes

  69. Forced : No


  70. Text #2

  71. ID : 4

  72. Format : ASS

  73. Codec ID : S_TEXT/ASS

  74. Codec ID/Info : Advanced Sub Station Alpha

  75. Duration : 1 h 53 min

  76. Bit rate : 42 b/s

  77. Count of elements : 897

  78. Compression mode : Lossless

  79. Stream size : 35.3 KiB (0%)

  80. Title : cht

  81. Language : Chinese

  82. Default : No

  83. Forced : No


  84. Text #3

  85. ID : 5

  86. ID in the original source medium : 4610 (0x1202)

  87. Format : PGS

  88. Muxing mode : zlib

  89. Codec ID : S_HDMV/PGS

  90. Codec ID/Info : Picture based subtitle format used on BDs/HD-DVDs

  91. Duration : 1 h 53 min

  92. Bit rate : 15.7 kb/s

  93. Count of elements : 1650

  94. Stream size : 12.8 MiB (0%)

  95. Title : eng

  96. Language : English

  97. Default : No

  98. Forced : No

  99. Original source medium : Blu-ray


  100. Menu

  101. 00:00:00.000 : Chapter 01

  102. 00:07:57.125 : Chapter 02

  103. 00:11:52.375 : Chapter 03

  104. 00:15:57.332 : Chapter 04

  105. 00:19:47.958 : Chapter 05

  106. 00:28:51.250 : Chapter 06

  107. 00:34:15.666 : Chapter 07

  108. 00:43:11.000 : Chapter 08

  109. 00:49:04.125 : Chapter 09

  110. 00:56:05.666 : Chapter 10

  111. 01:00:42.541 : Chapter 11

  112. 01:05:03.666 : Chapter 12

  113. 01:09:07.457 : Chapter 13

  114. 01:14:51.207 : Chapter 14

  115. 01:20:33.375 : Chapter 15

  116. 01:25:51.666 : Chapter 16

  117. 01:30:10.291 : Chapter 17

  118. 01:35:31.332 : Chapter 18

  119. 01:42:54.625 : Chapter 19

  120. 01:54:06.291 : Chapter 20


文件下载


除非特别注明,本文『非凡任务[国语配音/中文字幕].Extraordinary.Mission.2017.1080p.BluRay.x265.10bit.DTS 9.01GB』来源于互联网机器人自动抓取,非本站原创。 浮游电影网不对本文拥有版权,如有侵犯,请联系邮箱:fuyouu#yandex.com[#换成@]投诉。我们会在15个工作日内删除。 但烦请转载时请标明出处:“本文转载于『浮游电影网』,原文地址:https://www.fuyouu.com/14351.html

评论吧骚年!

发表你的见解   

昵称*

E-mail*(建议输入,以便收到博主回复的提示邮件)

验证码*

您可以使用eMule或eMule Mod(Windows)、aMule(Win、Linux、Mac)等软件下载eD2k链接。。
eMule收藏集(.emulecollection)文件是您选中的所有链接的列表文件。eMule可以直接下载它们。
按住SHIFT键选择可以选中多个选择框。
可用文件名和大小选择器来选择文件。
文件名选择器帮您根据文件名称或后缀来选择文件。不分大小写。
符号使用:
和:空格( )、+
不包含:-
或:|
转义:一对英文引号("");
匹配开头:^
匹配结尾:$
例如:
选中所有名称中包含有“eMule”或“0.49c”字眼,但不包含有“exe”字眼的:emule|0.49c -exe
选中所有名称的开头是“eMule”,结尾是“0.49c”的:^emule 0.49c$
选中所有名称中带有“eMule 0.49c”的(必须是“eMule 0.49c”,中间没有别的字符,不能是“eMule fake 0.49c”),需要转义:"emule 0.49c"
大小选择器帮您根据文件大小选择文件。