当前位置: 首页 >> 港台电影 >> 此情此刻[国粤语配音/中文字幕].The.Moment.2016.1080p.BluRay.x265.10bit.DTS.2Audio 4.55GB >> 正文

此情此刻[国粤语配音/中文字幕].The.Moment.2016.1080p.BluRay.x265.10bit.DTS.2Audio 4.55GB

2021年09月14日 13:26:17     电影发布:来源于网络     电影分类:港台电影     评论(0)    

此情此刻[国粤语配音/中文字幕].The.Moment.2016.1080p.BluRay.x265.10bit.DTS.2Audio 4.55GB 爱情片 剧情片 港台电影  第1张

◎译 名 此情此刻 / The Moment / Bei ching bei hak

◎年 代 2016

◎产 地 中国香港

◎类 别 剧情 / 爱情

◎语 言 粤语 / 汉语普通话

◎上映日期 2017-06-09(中国大陆) / 2016-09-15(中国香港)

◎IMDb链接 https://www.imdb.com/title/tt6029724/

◎豆瓣评分 5.9/10 (1580人评价)

◎豆瓣链接 https://movie.douban.com/subject/26801752/

◎片 长 90分钟

◎导 演 黄国辉 Kowk Fai Huang (id:1321361)

◎编 剧 杜瑞榕 Frances To (id:1370838)

◎演 员 林家栋 Ka Tung Lam (id:1050329)

陈静 Dada Chan (id:1316214)

关楚耀 Kelvin Kwan Chor-yiu (id:1322974)

潘灿良 Chan-Leung Poon (id:1294712)

孙耀威 Eric Suen (id:1017618)

郭伟亮 Eric Kwok (id:1338828)

叶佩雯 Grace Yip (id:1005971)

江嘉敏 Kaman Kong (id:1358029)

李幸倪 Gin Lee (id:1358443)

吴耀汉 Richard Ng (id:1037408)

张可颐 Maggie Cheung Ho Yee (id:1073994)

江海迦 AGA (id:1358371)

麦家瑜 Keeva Mak (id:1358370)

孙自佑 Dennis Sun (id:1374769)

胡佳嬑 Hayley Woo (id:1374563)

曾善美 meimei (id:1349285)

陈伟雄 Phat Chan (id:1275153)

李凯贤 Brian Lee (id:1374560)

叶晴晴 Robynn Yip (id:1342117)

孙晓慧 Kendy Sun (id:1358441)

邵音音 Yin-Yin Shaw (id:1297367)

陈少霞 Cherie Chan (id:1275141)

周殷廷 Yan Ting (id:1374770)

谭玉瑛 TAM YUK YING (id:1352971)

蓝奕邦 Pong Nan (id:1348473)

陈嘉欣 Gelly Chen (id:1374771)

刘亦宁 Yining Sun (id:1374772)

赵美琪 Mena Chiu (id:1374773)

布志纶 Alan Po (id:1372732)

周家怡 Catherine Chau (id:1321491)

陆骏光 Alan Luk Chun-Kwong (id:1349294)

麦子乐 Bryant Ji-Lok Mak (id:1351652)

何泳雯 Eunice Ho (id:1374774)

何华超 Tony Ho (id:1286723)

黎泽恩 Ronny Lai (id:1431216)

刘嘉璧 Cherrie Lau (id:1413889)

◎标 签 香港 / 怀旧 / 爱情 / 情怀 / 剧情 / 温情 / 2017 / 沙龙

◎简 介

这是四段关于情、关于重新出发的故事。由「丽诚影室」这照相馆、里面的相片和人物互相牵引。四个故事同时开展,各人于照相馆内穿插出现,互相影响。

  1. ##### MediaInfo ######

  2. General

  3. Unique ID : 72085604055139000807962420615149836392 (0x363B2EADE4B8E4F9BD29426539C0D868)

  4. Complete name : The.Moment.2016.1080p.BluRay.x265.10bit.DTS.2Audio-10017@BBQDDQ.COM.mkv

  5. Format : Matroska

  6. Format version : Version 4

  7. File size : 4.55 GiB

  8. Duration : 1 h 28 min

  9. Overall bit rate : 7 357 kb/s

  10. Movie name : The Moment

  11. Encoded date : UTC 2021-09-11 20:09:07

  12. Writing application : mkvmerge v61.0.0 ('So') 64-bit

  13. Writing library : libebml v1.4.2 + libmatroska v1.6.4

  14. Cover : Yes

  15. Attachments : cover.jpg / WenQuanWeiMiHei-1.ttf


  16. Video

  17. ID : 1

  18. Format : HEVC

  19. Format/Info : High Efficiency Video Coding

  20. Format profile : Main 10@L4@Main

  21. Codec ID : V_MPEGH/ISO/HEVC

  22. Duration : 1 h 28 min

  23. Bit rate : 4 309 kb/s

  24. Width : 1 920 pixels

  25. Height : 804 pixels

  26. Display aspect ratio : 2.40:1

  27. Frame rate mode : Constant

  28. Frame rate : 24.000 FPS

  29. Color space : YUV

  30. Chroma subsampling : 4:2:0

  31. Bit depth : 10 bits

  32. Bits/(Pixel*Frame) : 0.116

  33. Stream size : 2.67 GiB (59%)

  34. Writing library : x265 3.5+2-g2b25c9ba0+45:[Windows][GCC 10.2.0][64 bit] Yuuki 10bit+8bit+12bit

  35. Encoding settings : rc=crf / crf=17.0000 / qcomp=0.65 / qpstep=4 / stats-write=0 / stats-read=0 / no-lossless / no-cu-lossless / aq-mode=3 / aq-strength=0.80 / cbqpoffs=0 / crqpoffs=0 / ipratio=1.40 / pbratio=1.30 / psy-rd=2.00 / psy-rdoq=0.00 / deblock=0:0 / ref=6 / limit-refs=1 / no-limit-modes / bframes=8 / b-adapt=2 / bframe-bias=0 / b-pyramid / b-intra / weightp / weightb / min-keyint=24 / max-keyint=240 / rc-lookahead=24 / gop-lookahead=0 / NTMzNTQ=uuDQuD2mJt9fsCf / scenecut=40 / hist-scenecut=0 / radl=0 / max-cu-size=64 / min-cu-size=8 / me=3 / subme=7 / merange=48 / rdoq-level=0 / rd=4 / rdpenalty=0 / dynamic-rd=0.00 / no-rd-refine / ----- / cutree / sao / no-rect / no-amp / no-open-gop / wpp / no-pmode / pme / no-psnr / no-ssim / nr-intra=0 / nr-inter=0 / no-constrained-intra / no-strong-intra-smoothing / max-tu-size=32 / tu-inter-depth=1 / tu-intra-depth=1 / limit-tu=0 / qg-size=32 / qpmax=69 / qpmin=0 / ----- / cpuid=533541111039 / frame-threads=4 / numa-pools=+ / log-level=2 / input-csp=1 / input-res=1920x804 / interlace=0 / level-idc=0 / high-tier=1 / uhd-bd=0 / no-allow-non-conformance / no-repeat-headers / aud / no-hrd / info / hash=0 / no-temporal-layers / lookahead-slices=0 / no-splice / no-intra-refresh / no-ssim-rd / signhide / no-tskip / max-merge=3 / temporal-mvp / no-frame-dup / no-hme / no-analyze-src-pics / no-sao-non-deblock / selective-sao=4 / early-skip / rskip / no-fast-intra / no-tskip-fast / no-splitrd-skip / zone-count=0 / no-strict-cbr / no-rc-grain / no-const-vbv / sar=0 / overscan=0 / videoformat=5 / range=0 / colorprim=2 / transfer=2 / colormatrix=2 / chromaloc=0 / display-window=0 / cll=0,0 / min-luma=0 / max-luma=1023 / log2-max-poc-lsb=8 / vui-timing-info / vui-hrd-info / slices=1 / no-opt-qp-pps / no-opt-ref-list-length-pps / no-multi-pass-opt-rps / scenecut-bias=0.05 / hist-threshold=0.03 / no-opt-cu-delta-qp / no-aq-motion / no-hdr10 / no-hdr10-opt / no-dhdr10-opt / no-idr-recovery-sei / analysis-reuse-level=0 / analysis-save-reuse-level=0 / analysis-load-reuse-level=0 / scale-factor=0 / refine-intra=0 / refine-inter=0 / refine-mv=1 / refine-ctu-distortion=0 / no-limit-sao / ctu-info=0 / no-lowpass-dct / refine-analysis-type=0 / copy-pic=1 / max-ausize-factor=1.0 / no-dynamic-refine / no-single-sei / no-hevc-aq / no-svt / no-field / qp-adaptation-range=1.00 / scenecut-aware-qp=0conformance-window-offsets / right=0 / bottom=0 / NTMzNTQ= / decoder-max-rate=0 / no-vbv-live-multi-pass

  36. Default : Yes

  37. Forced : No


  38. Audio #1

  39. ID : 2

  40. Format : DTS

  41. Format/Info : Digital Theater Systems

  42. Codec ID : A_DTS

  43. Duration : 1 h 28 min

  44. Bit rate mode : Constant

  45. Bit rate : 1 510 kb/s

  46. Channel(s) : 6 channels

  47. Channel layout : C L R Ls Rs LFE

  48. Sampling rate : 48.0 kHz

  49. Frame rate : 93.750 FPS (512 SPF)

  50. Bit depth : 24 bits

  51. Compression mode : Lossy

  52. Stream size : 956 MiB (21%)

  53. Title : Mandarin

  54. Language : Chinese

  55. Default : Yes

  56. Forced : No


  57. Audio #2

  58. ID : 3

  59. Format : DTS

  60. Format/Info : Digital Theater Systems

  61. Codec ID : A_DTS

  62. Duration : 1 h 28 min

  63. Bit rate mode : Constant

  64. Bit rate : 1 510 kb/s

  65. Channel(s) : 6 channels

  66. Channel layout : C L R Ls Rs LFE

  67. Sampling rate : 48.0 kHz

  68. Frame rate : 93.750 FPS (512 SPF)

  69. Bit depth : 24 bits

  70. Compression mode : Lossy

  71. Stream size : 956 MiB (21%)

  72. Title : Cantonese

  73. Language : Chinese

  74. Default : No

  75. Forced : No


  76. Text #1

  77. ID : 4

  78. Format : ASS

  79. Codec ID : S_TEXT/ASS

  80. Codec ID/Info : Advanced Sub Station Alpha

  81. Duration : 1 h 24 min

  82. Bit rate : 97 b/s

  83. Count of elements : 1329

  84. Compression mode : Lossless

  85. Stream size : 60.4 KiB (0%)

  86. Title : chs

  87. Language : Chinese

  88. Default : Yes

  89. Forced : No


  90. Text #2

  91. ID : 5

  92. Format : ASS

  93. Codec ID : S_TEXT/ASS

  94. Codec ID/Info : Advanced Sub Station Alpha

  95. Duration : 1 h 24 min

  96. Bit rate : 97 b/s

  97. Count of elements : 1329

  98. Compression mode : Lossless

  99. Stream size : 60.4 KiB (0%)

  100. Title : cht

  101. Language : Chinese

  102. Default : No

  103. Forced : No


  104. Text #3

  105. ID : 6

  106. ID in the original source medium : 4609 (0x1201)

  107. Format : PGS

  108. Muxing mode : zlib

  109. Codec ID : S_HDMV/PGS

  110. Codec ID/Info : Picture based subtitle format used on BDs/HD-DVDs

  111. Duration : 1 h 24 min

  112. Bit rate : 37.8 kb/s

  113. Count of elements : 1992

  114. Stream size : 22.8 MiB (0%)

  115. Title : eng

  116. Language : English

  117. Default : No

  118. Forced : No

  119. Original source medium : Blu-ray


  120. Menu

  121. 00:00:00.000 : Chapter 01

  122. 00:06:12.708 : Chapter 02

  123. 00:16:36.375 : Chapter 03

  124. 00:21:54.791 : Chapter 04

  125. 00:29:42.666 : Chapter 05

  126. 00:37:59.958 : Chapter 06

  127. 00:44:39.500 : Chapter 07

  128. 00:49:41.666 : Chapter 08

  129. 00:59:57.250 : Chapter 09

  130. 01:07:38.875 : Chapter 10

  131. 01:14:06.750 : Chapter 11

  132. 01:19:48.541 : Chapter 12



文件下载


除非特别注明,本文『此情此刻[国粤语配音/中文字幕].The.Moment.2016.1080p.BluRay.x265.10bit.DTS.2Audio 4.55GB』来源于互联网机器人自动抓取,非本站原创。 浮游电影网不对本文拥有版权,如有侵犯,请联系邮箱:fuyouu#yandex.com[#换成@]投诉。我们会在15个工作日内删除。 但烦请转载时请标明出处:“本文转载于『浮游电影网』,原文地址:https://www.fuyouu.com/14350.html

评论吧骚年!

发表你的见解   

昵称*

E-mail*(建议输入,以便收到博主回复的提示邮件)

验证码*

您可以使用eMule或eMule Mod(Windows)、aMule(Win、Linux、Mac)等软件下载eD2k链接。。
eMule收藏集(.emulecollection)文件是您选中的所有链接的列表文件。eMule可以直接下载它们。
按住SHIFT键选择可以选中多个选择框。
可用文件名和大小选择器来选择文件。
文件名选择器帮您根据文件名称或后缀来选择文件。不分大小写。
符号使用:
和:空格( )、+
不包含:-
或:|
转义:一对英文引号("");
匹配开头:^
匹配结尾:$
例如:
选中所有名称中包含有“eMule”或“0.49c”字眼,但不包含有“exe”字眼的:emule|0.49c -exe
选中所有名称的开头是“eMule”,结尾是“0.49c”的:^emule 0.49c$
选中所有名称中带有“eMule 0.49c”的(必须是“eMule 0.49c”,中间没有别的字符,不能是“eMule fake 0.49c”),需要转义:"emule 0.49c"
大小选择器帮您根据文件大小选择文件。