当前位置: 首页 >> 国产电影 >> 毒诫[国粤语配音/中文字幕].Dealer.Healer.2017.1080p.BluRay.x265.10bit.DTS.2Audio 5.96GB >> 正文

毒诫[国粤语配音/中文字幕].Dealer.Healer.2017.1080p.BluRay.x265.10bit.DTS.2Audio 5.96GB

2021年09月14日 13:24:58     电影发布:来源于网络     电影分类:国产电影     评论(0)    

毒诫[国粤语配音/中文字幕].Dealer.Healer.2017.1080p.BluRay.x265.10bit.DTS.2Audio 5.96GB 犯罪片 动作片 剧情片 国产电影  第1张

◎译 名 毒。诫 / 神行太保 / 陈华传 / Dealer Healer

◎片 名 毒。誡

◎年 代 2017

◎产 地 中国大陆 / 中国香港

◎类 别 剧情 / 动作 / 犯罪

◎语 言 汉语普通话 / 粤语

◎上映日期 2017-05-12(中国大陆) / 2017-05-18(中国香港)

◎IMDb链接 https://www.imdb.com/title/tt6900380/

◎豆瓣评分 5.0/10 (20242人评价)

◎豆瓣链接 https://movie.douban.com/subject/26605946/

◎片 长 100分钟

◎导 演 刘国昌 Lawrence Ah Mon (id:1276870)

◎编 剧 陈文强 Man Keung Chan (id:1280434)

林惠菊 Huiju Lin (id:1373534)

◎演 员 刘青云 Sean Lau (id:1007251)

林家栋 Ka Tung Lam (id:1050329)

古天乐 Louis Koo (id:1027577)

张晋 Max Zhang (id:1318005)

江一燕 Yiyan Jiang (id:1274286)

谭耀文 Patrick Tam (id:1033280)

吴孟达 Man Tat Ng (id:1016771)

陈观泰 Kuan Tai Chen (id:1028360)

卢海鹏 Hoi-Pang Lo (id:1038772)

楼南光 Billy Lau (id:1289501)

欧锦棠 Stephen Au (id:1275712)

林国斌 Ben Lam (id:1289293)

尹扬明 Yeung Ming Wan (id:1313041)

苗可秀 Nora Miao (id:1005207)

庄思敏 Jacquelin Chong (id:1326932)

张建声 Justin Cheung (id:1323927)

朱鉴然 kevin Chu (id:1375415)

赵永洪 Raymond Chiu (id:1315541)

张松枝 Deno Cheung (id:1339097)

林德禄 David Lam (id:1326068)

骏雄 Chun Hung Liao (id:1345871)

吴海昕 Sofiee Ng (id:1349291)

黄溢濠 Yatho Wong (id:1379510)

陈健朗 Kinlong Chan (id:1372610)

朱嘉懿 Julia Chu (id:1415701)

张颖 Ying Zhang (id:1425471)

周志辉 Chi-Fai Chow (id:1343510)

林家威 Lim Kah-wai (id:1275630)

吴宝玲 Po-ling Ng (id:1293135)

◎标 签 香港 / 犯罪 / 毒品 / 古天乐刘青云 / 剧情 / 2017 / 传记 / 动作

◎简 介

六、七十年代的香港,警察贪污,黑道横行,正是陈华(刘青云饰)与喇叭(林家楝饰)、猫仔(张晋饰)及一班兄弟最风光的日子。

陈华被视为「慈云山十三太保」之首,气焰高涨;还结识了一生至爱可柔(江一燕饰),共度人生最甜蜜的时光。可惜好景不常,陈华因私下贩毒而被帮会追杀,幸好在亦敌亦友的扫毒组组长哈雷(古天乐饰)帮助下,逃出生天,但却终究法网难逃。出狱后,遭逢父亲病逝及女友可柔失踪,无比自责的陈华,顿然觉悟前非,立志重新做人。他不但积极参与青少年戒毒工作,获得十大杰青荣誉;更把喇叭与猫仔拉回正途,又经常出手调停江湖纠纷,因而深受黑白两道所敬重。某次于日本出席戒毒讲座后,陈华与可柔在街头重遇。他一心再续前缘,但又能否轻易为自己的感情拆弹?

  1. ##### MediaInfo ######

  2. General

  3. Unique ID : 2652431831078875466250084978871961762 (0x1FED6FC67A2F918EF946063203B08A2)

  4. Complete name : Dealer.Healer.2017.1080p.BluRay.x265.10bit.DTS.2Audio-10017@BBQDDQ.COM.mkv

  5. Format : Matroska

  6. Format version : Version 4

  7. File size : 5.96 GiB

  8. Duration : 1 h 40 min

  9. Overall bit rate : 8 469 kb/s

  10. Movie name : Dealer Healer - Blu-ray?

  11. Encoded date : UTC 2021-09-11 19:19:23

  12. Writing application : mkvmerge v61.0.0 ('So') 64-bit

  13. Writing library : libebml v1.4.2 + libmatroska v1.6.4

  14. Cover : Yes

  15. Attachments : cover.jpg


  16. Video

  17. ID : 1

  18. Format : HEVC

  19. Format/Info : High Efficiency Video Coding

  20. Format profile : Main 10@L4@Main

  21. Codec ID : V_MPEGH/ISO/HEVC

  22. Duration : 1 h 40 min

  23. Bit rate : 6 157 kb/s

  24. Width : 1 920 pixels

  25. Height : 816 pixels

  26. Display aspect ratio : 2.35:1

  27. Frame rate mode : Constant

  28. Frame rate : 24.000 FPS

  29. Color space : YUV

  30. Chroma subsampling : 4:2:0

  31. Bit depth : 10 bits

  32. Bits/(Pixel*Frame) : 0.164

  33. Stream size : 4.34 GiB (73%)

  34. Writing library : x265 3.5+2-g2b25c9ba0+45:[Windows][GCC 10.2.0][64 bit] Yuuki 10bit+8bit+12bit

  35. Encoding settings : rc=crf / crf=17.0000 / qcomp=0.65 / qpstep=4 / stats-write=0 / stats-read=0 / no-lossless / no-cu-lossless / aq-mode=3 / aq-strength=0.80 / cbqpoffs=0 / crqpoffs=0 / ipratio=1.40 / pbratio=1.30 / psy-rd=2.00 / psy-rdoq=0.00 / deblock=0:0 / ref=6 / limit-refs=1 / no-limit-modes / bframes=8 / b-adapt=2 / bframe-bias=0 / b-pyramid / b-intra / weightp / weightb / min-keyint=24 / max-keyint=240 / rc-lookahead=24 / gop-lookahead=0 / NTMzNTQ=uuDQuD2mJt9fsCf / scenecut=40 / hist-scenecut=0 / radl=0 / max-cu-size=64 / min-cu-size=8 / me=3 / subme=7 / merange=48 / rdoq-level=0 / rd=4 / rdpenalty=0 / dynamic-rd=0.00 / no-rd-refine / ----- / cutree / sao / no-rect / no-amp / no-open-gop / wpp / no-pmode / pme / no-psnr / no-ssim / nr-intra=0 / nr-inter=0 / no-constrained-intra / no-strong-intra-smoothing / max-tu-size=32 / tu-inter-depth=1 / tu-intra-depth=1 / limit-tu=0 / qg-size=32 / qpmax=69 / qpmin=0 / ----- / cpuid=533541111039 / frame-threads=4 / numa-pools=+ / log-level=2 / input-csp=1 / input-res=1920x816 / interlace=0 / level-idc=0 / high-tier=1 / uhd-bd=0 / no-allow-non-conformance / no-repeat-headers / aud / no-hrd / info / hash=0 / no-temporal-layers / lookahead-slices=0 / no-splice / no-intra-refresh / no-ssim-rd / signhide / no-tskip / max-merge=3 / temporal-mvp / no-frame-dup / no-hme / no-analyze-src-pics / no-sao-non-deblock / selective-sao=4 / early-skip / rskip / no-fast-intra / no-tskip-fast / no-splitrd-skip / zone-count=0 / no-strict-cbr / no-rc-grain / no-const-vbv / sar=0 / overscan=0 / videoformat=5 / range=0 / colorprim=2 / transfer=2 / colormatrix=2 / chromaloc=0 / display-window=0 / cll=0,0 / min-luma=0 / max-luma=1023 / log2-max-poc-lsb=8 / vui-timing-info / vui-hrd-info / slices=1 / no-opt-qp-pps / no-opt-ref-list-length-pps / no-multi-pass-opt-rps / scenecut-bias=0.05 / hist-threshold=0.03 / no-opt-cu-delta-qp / no-aq-motion / no-hdr10 / no-hdr10-opt / no-dhdr10-opt / no-idr-recovery-sei / analysis-reuse-level=0 / analysis-save-reuse-level=0 / analysis-load-reuse-level=0 / scale-factor=0 / refine-intra=0 / refine-inter=0 / refine-mv=1 / refine-ctu-distortion=0 / no-limit-sao / ctu-info=0 / no-lowpass-dct / refine-analysis-type=0 / copy-pic=1 / max-ausize-factor=1.0 / no-dynamic-refine / no-single-sei / no-hevc-aq / no-svt / no-field / qp-adaptation-range=1.00 / scenecut-aware-qp=0conformance-window-offsets / right=0 / bottom=0 / NTMzNTQ= / decoder-max-rate=0 / no-vbv-live-multi-pass

  36. Default : Yes

  37. Forced : No


  38. Audio #1

  39. ID : 2

  40. Format : E-AC-3

  41. Format/Info : Enhanced AC-3

  42. Commercial name : Dolby Digital Plus

  43. Format profile : Blu-ray Disc

  44. Codec ID : A_EAC3

  45. Duration : 1 h 40 min

  46. Bit rate mode : Constant

  47. Bit rate : 768 kb/s

  48. Channel(s) : 8 channels

  49. Channel layout : L R C LFE Ls Rs Lb Rb

  50. Sampling rate : 48.0 kHz

  51. Frame rate : 31.250 FPS (1536 SPF)

  52. Compression mode : Lossy

  53. Stream size : 554 MiB (9%)

  54. Title : Mandarin

  55. Language : Chinese

  56. Service kind : Complete Main

  57. Default : Yes

  58. Forced : No


  59. Audio #2

  60. ID : 3

  61. Format : DTS

  62. Format/Info : Digital Theater Systems

  63. Codec ID : A_DTS

  64. Duration : 1 h 40 min

  65. Bit rate mode : Constant

  66. Bit rate : 1 510 kb/s

  67. Channel(s) : 6 channels

  68. Channel layout : C L R Ls Rs LFE

  69. Sampling rate : 48.0 kHz

  70. Frame rate : 93.750 FPS (512 SPF)

  71. Bit depth : 24 bits

  72. Compression mode : Lossy

  73. Stream size : 1.06 GiB (18%)

  74. Title : Cantonese

  75. Language : Chinese

  76. Default : No

  77. Forced : No


  78. Text #1

  79. ID : 4

  80. Format : PGS

  81. Muxing mode : zlib

  82. Codec ID : S_HDMV/PGS

  83. Codec ID/Info : Picture based subtitle format used on BDs/HD-DVDs

  84. Duration : 1 h 35 min

  85. Bit rate : 23.0 kb/s

  86. Count of elements : 2858

  87. Stream size : 15.7 MiB (0%)

  88. Title : chs

  89. Language : Chinese

  90. Default : Yes

  91. Forced : No


  92. Text #2

  93. ID : 5

  94. Format : PGS

  95. Muxing mode : zlib

  96. Codec ID : S_HDMV/PGS

  97. Codec ID/Info : Picture based subtitle format used on BDs/HD-DVDs

  98. Duration : 1 h 35 min

  99. Bit rate : 22.0 kb/s

  100. Count of elements : 2502

  101. Stream size : 15.0 MiB (0%)

  102. Title : cht

  103. Language : Chinese

  104. Default : No

  105. Forced : No


  106. Text #3

  107. ID : 6

  108. Format : PGS

  109. Muxing mode : zlib

  110. Codec ID : S_HDMV/PGS

  111. Codec ID/Info : Picture based subtitle format used on BDs/HD-DVDs

  112. Duration : 1 h 39 min

  113. Bit rate : 26.7 kb/s

  114. Count of elements : 2522

  115. Stream size : 19.0 MiB (0%)

  116. Title : eng

  117. Language : English

  118. Default : No

  119. Forced : No


  120. Menu

  121. 00:00:00.000 : Chapter 01

  122. 00:05:00.083 : Chapter 02

  123. 00:10:40.833 : Chapter 03

  124. 00:14:51.833 : Chapter 04

  125. 00:19:53.708 : Chapter 05

  126. 00:23:57.041 : Chapter 06

  127. 00:27:39.583 : Chapter 07

  128. 00:32:47.833 : Chapter 08

  129. 00:39:39.125 : Chapter 09

  130. 00:45:34.291 : Chapter 10

  131. 00:50:45.875 : Chapter 11

  132. 00:56:48.416 : Chapter 12

  133. 01:02:40.958 : Chapter 13

  134. 01:08:20.708 : Chapter 14

  135. 01:14:09.875 : Chapter 15

  136. 01:19:57.250 : Chapter 16

  137. 01:28:45.833 : Chapter 17

  138. 01:35:38.125 : Chapter 18



文件下载


除非特别注明,本文『毒诫[国粤语配音/中文字幕].Dealer.Healer.2017.1080p.BluRay.x265.10bit.DTS.2Audio 5.96GB』来源于互联网机器人自动抓取,非本站原创。 浮游电影网不对本文拥有版权,如有侵犯,请联系邮箱:fuyouu#yandex.com[#换成@]投诉。我们会在15个工作日内删除。 但烦请转载时请标明出处:“本文转载于『浮游电影网』,原文地址:https://www.fuyouu.com/14349.html

评论吧骚年!

发表你的见解   

昵称*

E-mail*(建议输入,以便收到博主回复的提示邮件)

验证码*

您可以使用eMule或eMule Mod(Windows)、aMule(Win、Linux、Mac)等软件下载eD2k链接。。
eMule收藏集(.emulecollection)文件是您选中的所有链接的列表文件。eMule可以直接下载它们。
按住SHIFT键选择可以选中多个选择框。
可用文件名和大小选择器来选择文件。
文件名选择器帮您根据文件名称或后缀来选择文件。不分大小写。
符号使用:
和:空格( )、+
不包含:-
或:|
转义:一对英文引号("");
匹配开头:^
匹配结尾:$
例如:
选中所有名称中包含有“eMule”或“0.49c”字眼,但不包含有“exe”字眼的:emule|0.49c -exe
选中所有名称的开头是“eMule”,结尾是“0.49c”的:^emule 0.49c$
选中所有名称中带有“eMule 0.49c”的(必须是“eMule 0.49c”,中间没有别的字符,不能是“eMule fake 0.49c”),需要转义:"emule 0.49c"
大小选择器帮您根据文件大小选择文件。