当前位置: 首页 >> 港台电影 >> 九品芝麻官[国粤语配音/中文字幕].Hail.the.Judge.1994.1080p.BluRay.x265.10bit.DTS.2Audio 8.24GB >> 正文

九品芝麻官[国粤语配音/中文字幕].Hail.the.Judge.1994.1080p.BluRay.x265.10bit.DTS.2Audio 8.24GB

2021年09月14日 13:23:37     电影发布:来源于网络     电影分类:港台电影     评论(0)    

九品芝麻官[国粤语配音/中文字幕].Hail.the.Judge.1994.1080p.BluRay.x265.10bit.DTS.2Audio 8.24GB 古装片 喜剧片 剧情片 港台电影  第1张

◎译 名 九品芝麻官 / 九品芝麻官之白面包青天 / Hail the Judge

◎年 代 1994

◎产 地 中国香港 / 中国大陆

◎类 别 剧情 / 喜剧 / 古装

◎语 言 粤语

◎上映日期 1994-03-31(中国香港)

◎IMDb链接 https://www.imdb.com/title/tt0110201/

◎豆瓣评分 8.6/10 (524744人评价)

◎豆瓣链接 https://movie.douban.com/subject/1297518/

◎片 长 108分钟

◎导 演 王晶 Jing Wong (id:1274331)

◎编 剧 王晶 Jing Wong (id:1274331)

◎演 员 周星驰 Stephen Chow (id:1048026)

吴孟达 Man Tat Ng (id:1016771)

张敏 Sharla Cheung (id:1005297)

徐锦江 Elvis Tsui (id:1028828)

钟丽缇 Christy Chung (id:1050179)

蔡少芬 Ada Choi (id:1050946)

吴启华 Lawrence Ng (id:1274420)

邹兆龙 Collin Chou (id:1022821)

梁荣忠 Wing-Chung Leung (id:1315034)

黄一飞 Yut Fei Wong (id:1301215)

苑琼丹 King-Tan Yuen (id:1274445)

刘洵 Shun Lau (id:1274304)

黄一山 Gabriel Wong (id:1315440)

曾健明 Kin-Ming Tsang (id:1376691)

蔡坚成 Kin-Shing Choi (id:1382581)

姜瑰瑾 Guijin Jiang (id:1322544)

刘小芸 Xiaoyun Liu (id:1322545)

胡立成 Licheng Hu (id:1331134)

邓泰和 Tai Wo Tang (id:1394346)

杨和 Wo Yeung (id:1444830)

黄雄 Hung Wong (id:1441657)

陈文妤 Man-Hiu Chan (id:1418360)

刘准 Cheun Lau (id:1429075)

卢雄 Paul Lo (id:1377025)

欧瑞伟 Jimmy Au Siu Wai (id:1346554)

夏萍 Ping Ha (id:1029271)

谷峰 Feng Ku (id:1054239)

吴回 Wui Ng (id:1054333)

李健仁 Kin-Yan Lee (id:1315575)

程东 John Ching Tung (id:1316720)

鲁芬 Fun Lo (id:1316723)

黄凤琼 Fung-King Wong (id:1327386)

王清河 Ching-Ho Wang (id:1077298)

田启文 Kai Man Tin (id:1315882)

向华强 Charles Heung (id:1037691)

向华胜 Jimmy Heung (id:1327878)

胡伟立 Wai Lap Wu (id:1275249)

钟志文 David Chung (id:1280776)

周伟权 Wai-kuen Chow (id:1439948)

姜全德 Chuen Tak Keung (id:1377204)

莫少奇 Jason Mok (id:1292297)

潘健君 Kin-Kwan Poon (id:1289158)

◎标 签 周星驰 / 喜剧 / 香港 / 搞笑 / 经典 / 香港电影 / 王晶 / 电影

◎简 介

包龙星(周星驰 饰)用钱买来了一个候补知县的职位,可是为人贪婪,县上的人都对他痛恨之极。在他代替正式知县的时候,戚家媳妇戚秦氏(张敏 饰)遭到了常威( 邹兆龙 饰 )的强暴,后来常威动了杀机把戚家上下都杀害了,更嫁祸于戚秦氏。常威是水师提督大人的儿子,请来大状方唐镜(吴启华 饰),收买了所有证人以便洗脱罪名。包龙星虽然极力寻找证据,也被迫害至落难他乡。他决定要上京告御状,后来他因没钱不得不在妓院打工,向老板娘学习了一身斗嘴的好功夫。他在妓院里误打误撞认识了皇上,帮助皇上有功他被封了大官,重审戚家被害的案件。他凭着聪慧与口才,全力为戚秦氏讨回公道。

  1. ##### MediaInfo ######

  2. General

  3. Unique ID : 198274221273327965570516841588659664100 (0x952A39DACF89FA37DFA1665BF5FD34E4)

  4. Complete name : Hail.the.Judge.1994.1080p.BluRay.x265.10bit.DTS.2Audio-10017@BBQDDQ.COM.mkv

  5. Format : Matroska

  6. Format version : Version 4

  7. File size : 8.24 GiB

  8. Duration : 1 h 46 min

  9. Overall bit rate : 11.1 Mb/s

  10. Movie name : Hail the Judge 1994

  11. Encoded date : UTC 2021-09-10 02:07:03

  12. Writing application : mkvmerge v61.0.0 ('So') 64-bit

  13. Writing library : libebml v1.4.2 + libmatroska v1.6.4

  14. Cover : Yes

  15. Attachments : cover.jpg


  16. Video

  17. ID : 1

  18. Format : HEVC

  19. Format/Info : High Efficiency Video Coding

  20. Format profile : Main 10@L5@Main

  21. Codec ID : V_MPEGH/ISO/HEVC

  22. Duration : 1 h 46 min

  23. Bit rate : 7 920 kb/s

  24. Width : 1 920 pixels

  25. Height : 1 080 pixels

  26. Display aspect ratio : 16:9

  27. Frame rate mode : Constant

  28. Frame rate : 24.000 FPS

  29. Color space : YUV

  30. Chroma subsampling : 4:2:0

  31. Bit depth : 10 bits

  32. Bits/(Pixel*Frame) : 0.159

  33. Stream size : 5.90 GiB (72%)

  34. Writing library : x265 3.5+2-g2b25c9ba0+45:[Windows][GCC 10.2.0][64 bit] Yuuki 10bit+8bit+12bit

  35. Encoding settings : rc=crf / crf=23.0000 / qcomp=0.60 / qpstep=4 / stats-write=0 / stats-read=0 / no-lossless / no-cu-lossless / aq-mode=3 / aq-strength=0.80 / cbqpoffs=0 / crqpoffs=0 / ipratio=1.40 / pbratio=1.30 / psy-rd=2.00 / psy-rdoq=0.00 / deblock=0:0 / ref=6 / limit-refs=1 / no-limit-modes / bframes=8 / b-adapt=2 / bframe-bias=0 / b-pyramid / b-intra / weightp / weightb / min-keyint=24 / max-keyint=240 / rc-lookahead=24 / gop-lookahead=0 / NTMzNTQ=uuDQuD2mJt9fsCf / scenecut=40 / hist-scenecut=0 / radl=0 / max-cu-size=64 / min-cu-size=8 / me=3 / subme=7 / merange=48 / rdoq-level=0 / rd=4 / rdpenalty=0 / dynamic-rd=0.00 / no-rd-refine / ----- / cutree / sao / no-rect / no-amp / no-open-gop / wpp / no-pmode / no-pme / no-psnr / no-ssim / nr-intra=0 / nr-inter=0 / no-constrained-intra / no-strong-intra-smoothing / max-tu-size=32 / tu-inter-depth=1 / tu-intra-depth=1 / limit-tu=0 / qg-size=32 / qpmax=69 / qpmin=0 / ----- / cpuid=533541111039 / frame-threads=4 / numa-pools=+ / log-level=2 / input-csp=1 / input-res=1920x1080 / interlace=0 / level-idc=0 / high-tier=1 / uhd-bd=0 / no-allow-non-conformance / repeat-headers / aud / no-hrd / info / hash=0 / no-temporal-layers / lookahead-slices=0 / no-splice / no-intra-refresh / no-ssim-rd / signhide / no-tskip / max-merge=3 / temporal-mvp / no-frame-dup / no-hme / no-analyze-src-pics / no-sao-non-deblock / selective-sao=4 / early-skip / rskip / no-fast-intra / no-tskip-fast / no-splitrd-skip / zone-count=0 / no-strict-cbr / no-rc-grain / no-const-vbv / sar=0 / overscan=0 / videoformat=5 / range=0 / colorprim=2 / transfer=2 / colormatrix=2 / chromaloc=0 / display-window=0 / cll=0,0 / min-luma=0 / max-luma=1023 / log2-max-poc-lsb=8 / vui-timing-info / vui-hrd-info / slices=1 / no-opt-qp-pps / no-opt-ref-list-length-pps / no-multi-pass-opt-rps / scenecut-bias=0.05 / hist-threshold=0.03 / no-opt-cu-delta-qp / no-aq-motion / no-hdr10 / no-hdr10-opt / no-dhdr10-opt / no-idr-recovery-sei / analysis-reuse-level=0 / analysis-save-reuse-level=0 / analysis-load-reuse-level=0 / scale-factor=0 / refine-intra=0 / refine-inter=0 / refine-mv=1 / refine-ctu-distortion=0 / no-limit-sao / ctu-info=0 / no-lowpass-dct / refine-analysis-type=0 / copy-pic=1 / max-ausize-factor=1.0 / no-dynamic-refine / no-single-sei / no-hevc-aq / no-svt / no-field / qp-adaptation-range=1.00 / scenecut-aware-qp=0conformance-window-offsets / right=0 / bottom=0 / NTMzNTQ= / decoder-max-rate=0 / no-vbv-live-multi-pass

  36. Default : Yes

  37. Forced : No


  38. Audio #1

  39. ID : 2

  40. Format : DTS

  41. Format/Info : Digital Theater Systems

  42. Codec ID : A_DTS

  43. Duration : 1 h 46 min

  44. Bit rate mode : Constant

  45. Bit rate : 1 536 kb/s

  46. Channel(s) : 6 channels

  47. Channel layout : C L R Ls Rs LFE

  48. Sampling rate : 48.0 kHz

  49. Frame rate : 93.750 FPS (512 SPF)

  50. Bit depth : 16 bits

  51. Compression mode : Lossy

  52. Stream size : 1.15 GiB (14%)

  53. Title : Cantonese

  54. Language : Chinese

  55. Default : Yes

  56. Forced : No


  57. Audio #2

  58. ID : 3

  59. Format : DTS

  60. Format/Info : Digital Theater Systems

  61. Codec ID : A_DTS

  62. Duration : 1 h 46 min

  63. Bit rate mode : Constant

  64. Bit rate : 1 536 kb/s

  65. Channel(s) : 6 channels

  66. Channel layout : C L R Ls Rs LFE

  67. Sampling rate : 48.0 kHz

  68. Frame rate : 93.750 FPS (512 SPF)

  69. Bit depth : 16 bits

  70. Compression mode : Lossy

  71. Stream size : 1.15 GiB (14%)

  72. Title : Mandarin

  73. Language : Chinese

  74. Default : No

  75. Forced : No


  76. Text #1

  77. ID : 4

  78. ID in the original source medium : 4609 (0x1201)

  79. Format : PGS

  80. Muxing mode : zlib

  81. Codec ID : S_HDMV/PGS

  82. Codec ID/Info : Picture based subtitle format used on BDs/HD-DVDs

  83. Duration : 1 h 44 min

  84. Bit rate : 53.5 kb/s

  85. Count of elements : 2898

  86. Stream size : 40.0 MiB (0%)

  87. Title : chs

  88. Language : Chinese

  89. Default : Yes

  90. Forced : No

  91. Original source medium : Blu-ray


  92. Text #2

  93. ID : 5

  94. ID in the original source medium : 4608 (0x1200)

  95. Format : PGS

  96. Muxing mode : zlib

  97. Codec ID : S_HDMV/PGS

  98. Codec ID/Info : Picture based subtitle format used on BDs/HD-DVDs

  99. Duration : 1 h 44 min

  100. Bit rate : 54.6 kb/s

  101. Count of elements : 2893

  102. Stream size : 40.9 MiB (0%)

  103. Title : cht

  104. Language : Chinese

  105. Default : No

  106. Forced : No

  107. Original source medium : Blu-ray


  108. Text #3

  109. ID : 6

  110. ID in the original source medium : 4610 (0x1202)

  111. Format : PGS

  112. Muxing mode : zlib

  113. Codec ID : S_HDMV/PGS

  114. Codec ID/Info : Picture based subtitle format used on BDs/HD-DVDs

  115. Duration : 1 h 44 min

  116. Bit rate : 59.8 kb/s

  117. Count of elements : 2901

  118. Stream size : 44.7 MiB (1%)

  119. Language : English

  120. Default : No

  121. Forced : No

  122. Original source medium : Blu-ray


  123. Menu

  124. 00:00:00.000 : Chapter 01

  125. 00:10:31.500 : Chapter 02

  126. 00:15:23.291 : Chapter 03

  127. 00:24:11.583 : Chapter 04

  128. 00:33:25.291 : Chapter 05

  129. 00:45:20.666 : Chapter 06

  130. 00:52:21.583 : Chapter 07

  131. 01:03:22.958 : Chapter 08

  132. 01:11:07.333 : Chapter 09

  133. 01:22:38.250 : Chapter 10

  134. 01:30:55.125 : Chapter 11

  135. 01:40:45.333 : Chapter 12


文件下载


除非特别注明,本文『九品芝麻官[国粤语配音/中文字幕].Hail.the.Judge.1994.1080p.BluRay.x265.10bit.DTS.2Audio 8.24GB』来源于互联网机器人自动抓取,非本站原创。 浮游电影网不对本文拥有版权,如有侵犯,请联系邮箱:fuyouu#yandex.com[#换成@]投诉。我们会在15个工作日内删除。 但烦请转载时请标明出处:“本文转载于『浮游电影网』,原文地址:https://www.fuyouu.com/14348.html

评论吧骚年!

发表你的见解   

昵称*

E-mail*(建议输入,以便收到博主回复的提示邮件)

验证码*

您可以使用eMule或eMule Mod(Windows)、aMule(Win、Linux、Mac)等软件下载eD2k链接。。
eMule收藏集(.emulecollection)文件是您选中的所有链接的列表文件。eMule可以直接下载它们。
按住SHIFT键选择可以选中多个选择框。
可用文件名和大小选择器来选择文件。
文件名选择器帮您根据文件名称或后缀来选择文件。不分大小写。
符号使用:
和:空格( )、+
不包含:-
或:|
转义:一对英文引号("");
匹配开头:^
匹配结尾:$
例如:
选中所有名称中包含有“eMule”或“0.49c”字眼,但不包含有“exe”字眼的:emule|0.49c -exe
选中所有名称的开头是“eMule”,结尾是“0.49c”的:^emule 0.49c$
选中所有名称中带有“eMule 0.49c”的(必须是“eMule 0.49c”,中间没有别的字符,不能是“eMule fake 0.49c”),需要转义:"emule 0.49c"
大小选择器帮您根据文件大小选择文件。