当前位置: 首页 >> 欧美电影 >> 解构生活[中文字幕].Breaking.and.Entering.2006.1080p.BluRay.x265.10bit.DD/5.1.MNHD 7.47GB >> 正文

解构生活[中文字幕].Breaking.and.Entering.2006.1080p.BluRay.x265.10bit.DD/5.1.MNHD 7.47GB

2021年09月14日 13:20:56     电影发布:来源于网络     电影分类:欧美电影     评论(0)    

解构生活[中文字幕].Breaking.and.Entering.2006.1080p.BluRay.x265.10bit.DD/5.1.MNHD 7.47GB 家庭片 惊悚片 爱情片 剧情片 欧美电影  第1张

◎译 名 解构生活 / 非法入侵 / 欲望迷城

◎片 名 Breaking and Entering

◎年 代 2006

◎产 地 美国 / 英国

◎类 别 剧情 / 爱情 / 惊悚 / 家庭

◎语 言 塞尔维亚语 / 英语

◎上映日期 2006-11-10(英国)

◎IMDb链接 https://www.imdb.com/title/tt0443456/

◎豆瓣评分 7.4/10 (11319人评价)

◎豆瓣链接 https://movie.douban.com/subject/1783774/

◎片 长 120 分钟

◎导 演 安东尼·明格拉 Anthony Minghella (id:1047995)

◎编 剧 安东尼·明格拉 Anthony Minghella (id:1047995)

◎演 员 裘德·洛 Jude Law (id:1010510)

罗宾·怀特 Robin Wright (id:1002676)

维拉·法米加 Vera Farmiga (id:1053584)

马丁·弗瑞曼 Martin Freeman (id:1049612)

朱丽叶·比诺什 Juliette Binoche (id:1016677)

爱德·维斯特维克 Ed Westwick (id:1025139)

拉菲·格拉沃恩 Rafi Gavron (id:1314185)

迈克尔·谢弗 Michael Shaeffer (id:1378922)

艾伦·托马斯 Ellen Thomas (id:1386609)

Steve E. Andrews Steve E. Andrews (id:1277257)

艾尼塔·欧弗兰德 Anita Overland (id:1293745)

鲍伯·韦恩斯坦 Bob Weinstein (id:1300654)

安东尼·明格拉 Anthony Minghella (id:1047995)

盖布瑞·雅德 Gabriel Yared (id:1028122)

班诺特·德姆 Beno?t Delhomme (id:1282193)

安迪·尼克尔森 Andy Nicholson (id:1293160)

安娜·平诺克 Anna Pinnock (id:1276358)

阿莱克斯·麦克唐维尔 Alex McDowell (id:1291544)

伊凡娜·普里莫拉克 Ivana Primorac (id:1294917)

朱莉·达特尼尔 Julie Dartnell (id:1281824)

Steve E. Andrews Steve E. Andrews (id:1277257)

Vít Komrzy Vít Komrzy (id:1288857)

◎标 签 裘德·洛 / 美国 / judelaw / 爱情 / JulietteBinoche / 英国 / 朱丽叶比诺什 / AnthonyMinghella

◎简 介

威尔·弗兰西斯(裘德·洛 Jude Law 饰)是知名建筑师,可年轻有为的他家庭生活并不那么幸福。妻子与他的沟通越来越少,一心扑在自闭的女儿身上,家人缺乏日常的交流。

威尔的办公室接连被盗,气愤的他开始调查窃贼,并由此结识了单身妈妈阿米拉(朱丽叶·比诺什 Juliette Binoche 饰)。魅力独特的阿米拉正是窃贼的母亲,可此时威尔已深深被她吸引。他放弃对盗窃案的追踪,悄悄追求阿米拉。

阿米拉生活贫困,一个人肩负着抚养和教育儿子的重任。威尔渐渐打动了阿米拉,似乎两个人的生活即将因为这段感情被重新构建。然而,生活的解构,并不像威尔设想的那般简单。

  1. ##### MediaInfo ######

  2. General

  3. Unique ID : 175016948918484394604529377290662226379 (0x83AB09CC0BB1E03F3C5CFBF03844A9CB)

  4. Complete name : Breaking.and.Entering.2006.1080p.BluRay.x265.10bit.DD+5.1.MNHD-10018@BBQDDQ.COM.mkv

  5. Format : Matroska

  6. Format version : Version 4

  7. File size : 7.47 GiB

  8. Duration : 1 h 58 min

  9. Overall bit rate : 9 002 kb/s

  10. Movie name : Breaking and Entering 2006 1080p BluRay x265 10bit DD+5.1 MNHD-10018@BBQDDQ.COM

  11. Encoded date : UTC 2021-09-11 07:20:33

  12. Writing application : mkvmerge v56.1.0 ('My Friend') 64-bit

  13. Writing library : libebml v1.4.2 + libmatroska v1.6.4

  14. IMDB : tt0443456

  15. TMDB : movie/1253


  16. Video

  17. ID : 1

  18. Format : HEVC

  19. Format/Info : High Efficiency Video Coding

  20. Format profile : Main 10@L5.1@High

  21. Codec ID : V_MPEGH/ISO/HEVC

  22. Duration : 1 h 58 min

  23. Bit rate : 7 731 kb/s

  24. Width : 1 920 pixels

  25. Height : 816 pixels

  26. Display aspect ratio : 2.35:1

  27. Frame rate mode : Constant

  28. Frame rate : 23.976 (24000/1001/53354) FPS

  29. Color space : YUV

  30. Chroma subsampling : 4:2:0

  31. Bit depth : 10 bits

  32. Bits/(Pixel*Frame) : 0.206

  33. Stream size : 6.41 GiB (86%)

  34. Writing library : x265 3.5+9-bf91444e0:[Windows][MSVC 1928][64 bit] 10bit

  35. Encoding settings : cpuid=533541111039 / frame-threads=3 / numa-pools=12 / wpp / pmode / no-pme / no-psnr / no-ssim / log-level=2 / input-csp=1 / input-res=1920x816 / interlace=0 / total-frames=170904 / level-idc=0 / high-tier=1 / uhd-bd=0 / ref=6 / no-allow-non-conformance / no-repeat-headers / annexb / no-aud / no-eob / no-eos / no-hrd / info / hash=0 / no-temporal-layers / no-open-gop / min-keyint=1 / keyint=250 / gop-lookahead=0 / bframes=8 / b-adapt=2 / b-pyramid / bframe-bias=0 / rc-lookahead=100 / lookahead-slices=0 / NTMzNTQ=uuDQuD2mJt9fsCf / scenecut=40 / hist-scenecut=0 / radl=0 / no-splice / no-intra-refresh / ctu=32 / min-cu-size=8 / no-rect / no-amp / max-tu-size=32 / tu-inter-depth=4 / tu-intra-depth=4 / limit-tu=0 / rdoq-level=2 / dynamic-rd=0.00 / no-ssim-rd / signhide / no-tskip / nr-intra=0 / nr-inter=0 / no-constrained-intra / strong-intra-smoothing / max-merge=5 / limit-refs=0 / no-limit-modes / me=3 / subme=5 / merange=57 / temporal-mvp / no-frame-dup / no-hme / weightp / weightb / no-analyze-src-pics / deblock=-3:-3 / no-sao / no-sao-non-deblock / rd=4 / selective-sao=0 / no-early-skip / no-rskip / no-fast-intra / no-tskip-fast / no-cu-lossless / b-intra / no-splitrd-skip / rdpenalty=0 / psy-rd=1.50 / psy-rdoq=1.00 / no-rd-refine / no-lossless / cbqpoffs=-2 / crqpoffs=-2 / rc=crf / crf=16.0 / qcomp=0.65 / qpstep=4 / stats-write=0 / stats-read=0 / vbv-maxrate=160000 / vbv-bufsize=160000 / vbv-init=0.9 / min-vbv-fullness=50.0 / max-vbv-fullness=80.0 / crf-max=0.0 / crf-min=0.0 / ipratio=1.30 / pbratio=1.20 / aq-mode=1 / aq-strength=0.80 / cutree / zone-count=0 / no-strict-cbr / qg-size=32 / no-rc-grain / qpmax=69 / qpmin=0 / no-const-vbv / sar=0 / overscan=0 / videoformat=5 / range=0 / colorprim=1 / transfer=1 / colormatrix=1 / chromaloc=0 / display-window=0 / cll=0,0 / min-luma=0 / max-luma=1023 / log2-max-poc-lsb=8 / vui-timing-info / vui-hrd-info / slices=1 / no-opt-qp-pps / no-opt-ref-list-length-pps / no-multi-pass-opt-rps / scenecut-bias=0.05 / hist-threshold=0.03 / no-opt-cu-delta-qp / no-aq-motion / no-hdr10 / no-hdr10-opt / no-dhdr10-opt / no-idr-recovery-sei / analysis-reuse-level=0 / analysis-save-reuse-level=0 / analysis-load-reuse-level=0 / scale-factor=0 / refine-intra=0 / refine-inter=0 / refine-mv=1 / refine-ctu-distortion=0 / no-limit-sao / ctu-info=0 / no-lowpass-dct / refine-analysis-type=0 / copy-pic=1 / max-ausize-factor=1.0 / no-dynamic-refine / no-single-sei / no-hevc-aq / no-svt / no-field / qp-adaptation-range=1.00 / scenecut-aware-qp=0conformance-window-offsets / right=0 / bottom=0 / NTMzNTQ= / decoder-max-rate=0 / no-vbv-live-multi-pass

  36. Default : Yes

  37. Forced : No

  38. Color range : Limited

  39. Color primaries : BT.709

  40. Transfer characteristics : BT.709

  41. Matrix coefficients : BT.709


  42. Audio #1

  43. ID : 2

  44. Format : E-AC-3

  45. Format/Info : Enhanced AC-3

  46. Commercial name : Dolby Digital Plus

  47. Codec ID : A_EAC3

  48. Duration : 1 h 58 min

  49. Bit rate mode : Constant

  50. Bit rate : 1 024 kb/s

  51. Channel(s) : 6 channels

  52. Channel layout : L R C LFE Ls Rs

  53. Sampling rate : 48.0 kHz

  54. Frame rate : 31.250 FPS (1536 SPF)

  55. Compression mode : Lossy

  56. Stream size : 870 MiB (11%)

  57. Language : English

  58. Service kind : Complete Main

  59. Default : Yes

  60. Forced : No


  61. Audio #2

  62. ID : 3

  63. Format : AC-3

  64. Format/Info : Audio Coding 3

  65. Commercial name : Dolby Digital

  66. Codec ID : A_AC3

  67. Duration : 1 h 58 min

  68. Bit rate mode : Constant

  69. Bit rate : 192 kb/s

  70. Channel(s) : 2 channels

  71. Channel layout : L R

  72. Sampling rate : 48.0 kHz

  73. Frame rate : 31.250 FPS (1536 SPF)

  74. Compression mode : Lossy

  75. Stream size : 163 MiB (2%)

  76. Title : Commentary by writer/director Anthony Minghella

  77. Language : English

  78. Service kind : Complete Main

  79. Default : No

  80. Forced : No


  81. Text #1

  82. ID : 4

  83. Format : UTF-8

  84. Codec ID : S_TEXT/UTF8

  85. Codec ID/Info : UTF-8 Plain Text

  86. Duration : 1 h 52 min

  87. Bit rate : 61 b/s

  88. Count of elements : 1882

  89. Stream size : 50.7 KiB (0%)

  90. Title : CHS

  91. Language : Chinese

  92. Default : Yes

  93. Forced : No


  94. Text #2

  95. ID : 5

  96. Format : PGS

  97. Muxing mode : zlib

  98. Codec ID : S_HDMV/PGS

  99. Codec ID/Info : Picture based subtitle format used on BDs/HD-DVDs

  100. Duration : 1 h 52 min

  101. Bit rate : 21.6 kb/s

  102. Count of elements : 2685

  103. Stream size : 17.3 MiB (0%)

  104. Title : CHT

  105. Language : Chinese

  106. Default : No

  107. Forced : No


  108. Text #3

  109. ID : 6

  110. Format : PGS

  111. Muxing mode : zlib

  112. Codec ID : S_HDMV/PGS

  113. Codec ID/Info : Picture based subtitle format used on BDs/HD-DVDs

  114. Duration : 1 h 52 min

  115. Bit rate : 34.1 kb/s

  116. Count of elements : 2783

  117. Stream size : 27.5 MiB (0%)

  118. Title : English

  119. Language : English

  120. Default : No

  121. Forced : No


  122. Text #4

  123. ID : 7

  124. Format : PGS

  125. Muxing mode : zlib

  126. Codec ID : S_HDMV/PGS

  127. Codec ID/Info : Picture based subtitle format used on BDs/HD-DVDs

  128. Duration : 1 h 52 min

  129. Bit rate : 35.7 kb/s

  130. Count of elements : 2919

  131. Stream size : 28.8 MiB (0%)

  132. Title : English (SDH)

  133. Language : English

  134. Default : No

  135. Forced : No


  136. Text #5

  137. ID : 8

  138. Format : PGS

  139. Muxing mode : zlib

  140. Codec ID : S_HDMV/PGS

  141. Codec ID/Info : Picture based subtitle format used on BDs/HD-DVDs

  142. Duration : 1 h 55 min

  143. Bit rate : 44.2 kb/s

  144. Count of elements : 4320

  145. Stream size : 36.6 MiB (0%)

  146. Title : CHT (Commentary)

  147. Language : Chinese

  148. Default : No

  149. Forced : No


  150. Menu

  151. 00:00:00.000 : Breaking and Entering

  152. 00:09:01.339 : A Clever Boy

  153. 00:12:49.811 : Bea is for Beautiful

  154. 00:19:23.886 : Another Break-in

  155. 00:26:20.621 : Stakeout

  156. 00:32:33.618 : "It's Disgusting"

  157. 00:43:45.915 : A Chance Encounter

  158. 00:48:01.879 : The Chase is On

  159. 00:54:17.008 : Repairs and Alterations

  160. 01:03:26.347 : Happy Enough

  161. 01:10:44.204 : In Deep

  162. 01:22:41.419 : Always About Fooling Around

  163. 01:28:30.474 : No Air

  164. 01:35:53.659 : An Accident

  165. 01:43:39.667 : Can't Be Hurt Twice

  166. 01:51:26.346 : Mending / End Credits


文件下载


除非特别注明,本文『解构生活[中文字幕].Breaking.and.Entering.2006.1080p.BluRay.x265.10bit.DD/5.1.MNHD 7.47GB』来源于互联网机器人自动抓取,非本站原创。 浮游电影网不对本文拥有版权,如有侵犯,请联系邮箱:fuyouu#yandex.com[#换成@]投诉。我们会在15个工作日内删除。 但烦请转载时请标明出处:“本文转载于『浮游电影网』,原文地址:https://www.fuyouu.com/14346.html

评论吧骚年!

发表你的见解   

昵称*

E-mail*(建议输入,以便收到博主回复的提示邮件)

验证码*

您可以使用eMule或eMule Mod(Windows)、aMule(Win、Linux、Mac)等软件下载eD2k链接。。
eMule收藏集(.emulecollection)文件是您选中的所有链接的列表文件。eMule可以直接下载它们。
按住SHIFT键选择可以选中多个选择框。
可用文件名和大小选择器来选择文件。
文件名选择器帮您根据文件名称或后缀来选择文件。不分大小写。
符号使用:
和:空格( )、+
不包含:-
或:|
转义:一对英文引号("");
匹配开头:^
匹配结尾:$
例如:
选中所有名称中包含有“eMule”或“0.49c”字眼,但不包含有“exe”字眼的:emule|0.49c -exe
选中所有名称的开头是“eMule”,结尾是“0.49c”的:^emule 0.49c$
选中所有名称中带有“eMule 0.49c”的(必须是“eMule 0.49c”,中间没有别的字符,不能是“eMule fake 0.49c”),需要转义:"emule 0.49c"
大小选择器帮您根据文件大小选择文件。