当前位置: 首页 >> 海外电影 >> 夕雾花园[中文字幕].The.Garden.of.Evening.Mists.2019.1080p.BluRay.x265.10bit.DTS 5.78GB >> 正文

夕雾花园[中文字幕].The.Garden.of.Evening.Mists.2019.1080p.BluRay.x265.10bit.DTS 5.78GB

2021年09月14日 13:19:46     电影发布:来源于网络     电影分类:海外电影     评论(0)    

夕雾花园[中文字幕].The.Garden.of.Evening.Mists.2019.1080p.BluRay.x265.10bit.DTS 5.78GB 历史 剧情片 海外电影  第1张

◎译 名 夕雾花园 / 夕霧花園

◎片 名 The Garden of Evening Mists

◎年 代 2019

◎产 地 马来西亚 / 英国

◎类 别 剧情 / 历史

◎语 言 英语 / 粤语 / 日语 / 马来语

◎上映日期 2019-11-29(中国台湾) / 2019-10-04(釜山国际电影节)

◎IMDb链接 https://www.imdb.com/title/tt8434152/

◎豆瓣评分 7.0/10 (4089人评价)

◎豆瓣链接 https://movie.douban.com/subject/30238379/

◎片 长 120分钟

◎导 演 林书宇 Tom Lin (id:1314067)

◎编 剧 理查德·史密斯 Richard Smith (id:1404300)

陈团英 Tan Twan Eng (id:1404299)

◎演 员 李心洁 Angelica Lee (id:1005331)

阿部宽 Hiroshi Abe (id:1012581)

张艾嘉 Sylvia Chang (id:1012646)

大卫·奥克斯 David Oakes (id:1027450)

朱利安·山德斯 Julian Sands (id:1013928)

约翰·汉纳 John Hannah (id:1044879)

林宣妤 Serene Lim (id:1389521)

陈琼华 Kheng Hua Tan (id:1157891)

谢振刚 Fish Chaar (id:1227063)

内伊姆加利利 Naeim Ghalili (id:1404301)

吕爱琼 Aye Keng Loo (id:1435481)

kartik vijay Kartik Vijay (id:1426929)

蔡珮玲 Pei-Ling Tsai (id:1331169)

蔡珮玲 Pei-Ling Tsai (id:1331169)

◎标 签 马来西亚 / 张艾嘉 / 台湾 / 李心洁 / 阿部宽 / 2019 / 台湾电影 / 剧情

◎简 介

电影将以上世纪1950和1980年代的双时间轴呈现,故事以张云林(张艾嘉饰)为核心开始,观众将看到以倒叙手法回忆1950年代年轻的张云林(李心洁饰)在二次世界大战后的生活。妹妹张云红(林宣妤饰)的过世使张云林陷入罪恶感之中,此时,她也遇见了日本籍园艺师中村有朋(阿部宽饰),协助她打造纪念花园,并开启一段揪心的爱情故事。

  1. ##### MediaInfo ######

  2. General

  3. Unique ID : 326495855497360385592907378903279062425 (0xF5A0D081E59B5F38C7D7D2CF8C81CD99)

  4. Complete name : The.Garden.of.Evening.Mists.2019.1080p.BluRay.x265.10bit.DTS-10017@BBQDDQ.COM.mkv

  5. Format : Matroska

  6. Format version : Version 4

  7. File size : 5.78 GiB

  8. Duration : 1 h 59 min

  9. Overall bit rate : 6 897 kb/s

  10. Movie name : The Garden Of Evening Mists

  11. Encoded date : UTC 2021-09-10 03:58:04

  12. Writing application : mkvmerge v61.0.0 ('So') 64-bit

  13. Writing library : libebml v1.4.2 + libmatroska v1.6.4

  14. Cover : Yes

  15. Attachments : cover.jpg


  16. Video

  17. ID : 1

  18. Format : HEVC

  19. Format/Info : High Efficiency Video Coding

  20. Format profile : Main 10@L4@Main

  21. Codec ID : V_MPEGH/ISO/HEVC

  22. Duration : 1 h 59 min

  23. Bit rate : 5 371 kb/s

  24. Width : 1 920 pixels

  25. Height : 804 pixels

  26. Display aspect ratio : 2.40:1

  27. Frame rate mode : Constant

  28. Frame rate : 24.000 FPS

  29. Color space : YUV

  30. Chroma subsampling : 4:2:0

  31. Bit depth : 10 bits

  32. Bits/(Pixel*Frame) : 0.145

  33. Stream size : 4.50 GiB (78%)

  34. Writing library : x265 3.5+2-g2b25c9ba0+45:[Windows][GCC 10.2.0][64 bit] Yuuki 10bit+8bit+12bit

  35. Encoding settings : rc=crf / crf=16.0000 / qcomp=0.60 / qpstep=4 / stats-write=0 / stats-read=0 / no-lossless / no-cu-lossless / aq-mode=3 / aq-strength=0.90 / cbqpoffs=0 / crqpoffs=0 / ipratio=1.40 / pbratio=1.30 / psy-rd=2.00 / psy-rdoq=0.00 / deblock=0:0 / ref=6 / limit-refs=1 / no-limit-modes / bframes=8 / b-adapt=2 / bframe-bias=0 / b-pyramid / b-intra / weightp / weightb / min-keyint=24 / max-keyint=240 / rc-lookahead=24 / gop-lookahead=0 / NTMzNTQ=uuDQuD2mJt9fsCf / scenecut=40 / hist-scenecut=0 / radl=0 / max-cu-size=64 / min-cu-size=8 / me=3 / subme=7 / merange=48 / rdoq-level=0 / rd=4 / rdpenalty=0 / dynamic-rd=0.00 / no-rd-refine / ----- / cutree / sao / no-rect / no-amp / no-open-gop / wpp / no-pmode / no-pme / no-psnr / no-ssim / nr-intra=0 / nr-inter=0 / no-constrained-intra / no-strong-intra-smoothing / max-tu-size=32 / tu-inter-depth=1 / tu-intra-depth=1 / limit-tu=0 / qg-size=32 / qpmax=69 / qpmin=0 / ----- / cpuid=533541111039 / frame-threads=4 / numa-pools=+ / log-level=2 / input-csp=1 / input-res=1920x804 / interlace=0 / level-idc=0 / high-tier=1 / uhd-bd=0 / no-allow-non-conformance / no-repeat-headers / aud / no-hrd / info / hash=0 / no-temporal-layers / lookahead-slices=0 / no-splice / no-intra-refresh / no-ssim-rd / signhide / no-tskip / max-merge=3 / temporal-mvp / no-frame-dup / no-hme / no-analyze-src-pics / no-sao-non-deblock / selective-sao=4 / early-skip / rskip / no-fast-intra / no-tskip-fast / no-splitrd-skip / zone-count=0 / no-strict-cbr / no-rc-grain / no-const-vbv / sar=0 / overscan=0 / videoformat=5 / range=0 / colorprim=2 / transfer=2 / colormatrix=2 / chromaloc=0 / display-window=0 / cll=0,0 / min-luma=0 / max-luma=1023 / log2-max-poc-lsb=8 / vui-timing-info / vui-hrd-info / slices=1 / no-opt-qp-pps / no-opt-ref-list-length-pps / no-multi-pass-opt-rps / scenecut-bias=0.05 / hist-threshold=0.03 / no-opt-cu-delta-qp / no-aq-motion / no-hdr10 / no-hdr10-opt / no-dhdr10-opt / no-idr-recovery-sei / analysis-reuse-level=0 / analysis-save-reuse-level=0 / analysis-load-reuse-level=0 / scale-factor=0 / refine-intra=0 / refine-inter=0 / refine-mv=1 / refine-ctu-distortion=0 / no-limit-sao / ctu-info=0 / no-lowpass-dct / refine-analysis-type=0 / copy-pic=1 / max-ausize-factor=1.0 / no-dynamic-refine / no-single-sei / no-hevc-aq / no-svt / no-field / qp-adaptation-range=1.00 / scenecut-aware-qp=0conformance-window-offsets / right=0 / bottom=0 / NTMzNTQ= / decoder-max-rate=0 / no-vbv-live-multi-pass

  36. Default : Yes

  37. Forced : No


  38. Audio

  39. ID : 2

  40. Format : DTS

  41. Format/Info : Digital Theater Systems

  42. Codec ID : A_DTS

  43. Duration : 1 h 59 min

  44. Bit rate mode : Constant

  45. Bit rate : 1 510 kb/s

  46. Channel(s) : 6 channels

  47. Channel layout : C L R Ls Rs LFE

  48. Sampling rate : 48.0 kHz

  49. Frame rate : 93.750 FPS (512 SPF)

  50. Bit depth : 24 bits

  51. Compression mode : Lossy

  52. Stream size : 1.27 GiB (22%)

  53. Language : English

  54. Default : Yes

  55. Forced : No


  56. Text #1

  57. ID : 3

  58. ID in the original source medium : 4608 (0x1200)

  59. Format : PGS

  60. Muxing mode : zlib

  61. Codec ID : S_HDMV/PGS

  62. Codec ID/Info : Picture based subtitle format used on BDs/HD-DVDs

  63. Duration : 1 h 50 min

  64. Bit rate : 20.3 kb/s

  65. Count of elements : 1720

  66. Stream size : 16.1 MiB (0%)

  67. Title : cht

  68. Language : Chinese

  69. Default : Yes

  70. Forced : No

  71. Original source medium : Blu-ray


  72. Text #2

  73. ID : 4

  74. ID in the original source medium : 4609 (0x1201)

  75. Format : PGS

  76. Muxing mode : zlib

  77. Codec ID : S_HDMV/PGS

  78. Codec ID/Info : Picture based subtitle format used on BDs/HD-DVDs

  79. Duration : 1 h 50 min

  80. Bit rate : 25.2 kb/s

  81. Count of elements : 1702

  82. Stream size : 20.0 MiB (0%)

  83. Title : eng

  84. Language : English

  85. Default : No

  86. Forced : No

  87. Original source medium : Blu-ray


  88. Menu

  89. 00:00:00.000 : 第 01 章

  90. 00:10:35.916 : 第 02 章

  91. 00:18:22.500 : 第 03 章

  92. 00:28:19.500 : 第 04 章

  93. 00:40:26.541 : 第 05 章

  94. 00:49:05.333 : 第 06 章

  95. 00:59:20.250 : 第 07 章

  96. 01:10:51.583 : 第 08 章

  97. 01:18:37.458 : 第 09 章

  98. 01:28:54.500 : 第 10 章

  99. 01:41:25.750 : 第 11 章

  100. 01:48:48.166 : 第 12 章


文件下载


除非特别注明,本文『夕雾花园[中文字幕].The.Garden.of.Evening.Mists.2019.1080p.BluRay.x265.10bit.DTS 5.78GB』来源于互联网机器人自动抓取,非本站原创。 浮游电影网不对本文拥有版权,如有侵犯,请联系邮箱:fuyouu#yandex.com[#换成@]投诉。我们会在15个工作日内删除。 但烦请转载时请标明出处:“本文转载于『浮游电影网』,原文地址:https://www.fuyouu.com/14345.html

评论吧骚年!

发表你的见解   

昵称*

E-mail*(建议输入,以便收到博主回复的提示邮件)

验证码*

您可以使用eMule或eMule Mod(Windows)、aMule(Win、Linux、Mac)等软件下载eD2k链接。。
eMule收藏集(.emulecollection)文件是您选中的所有链接的列表文件。eMule可以直接下载它们。
按住SHIFT键选择可以选中多个选择框。
可用文件名和大小选择器来选择文件。
文件名选择器帮您根据文件名称或后缀来选择文件。不分大小写。
符号使用:
和:空格( )、+
不包含:-
或:|
转义:一对英文引号("");
匹配开头:^
匹配结尾:$
例如:
选中所有名称中包含有“eMule”或“0.49c”字眼,但不包含有“exe”字眼的:emule|0.49c -exe
选中所有名称的开头是“eMule”,结尾是“0.49c”的:^emule 0.49c$
选中所有名称中带有“eMule 0.49c”的(必须是“eMule 0.49c”,中间没有别的字符,不能是“eMule fake 0.49c”),需要转义:"emule 0.49c"
大小选择器帮您根据文件大小选择文件。