当前位置: 首页 >> 日韩电影 >> 蓝色[中文字幕].Blue.2021.1080p.FriDay.WEB-DL.H264.AAC 2.94GB >> 正文

蓝色[中文字幕].Blue.2021.1080p.FriDay.WEB-DL.H264.AAC 2.94GB

2021年09月12日 16:48:14     电影发布:来源于网络     电影分类:日韩电影     评论(0)    

蓝色[中文字幕].Blue.2021.1080p.FriDay.WEB DL.H264.AAC 2.94GB 动作片 剧情片 日韩电影  第1张

◎译 名 蓝色 / Blue

◎片 名 ブルー

◎年 代 2021

◎产 地 日本

◎类 别 剧情 / 动作

◎语 言 日语

◎上映日期 2021-04(日本)

◎IMDb链接 https://www.imdb.com/title/tt14611910/

◎豆瓣评分 7.4/10 (261人评价)

◎豆瓣链接 https://movie.douban.com/subject/35280913/

◎片 长 107分钟

◎导 演 吉田惠辅 Keisuke Yoshida (id:1337337)

◎编 剧 吉田惠辅 Keisuke Yoshida (id:1337337)

◎演 员 柄本时生 Tokio Emoto (id:1313539)

东出昌大 Masahiro Higashide (id:1324960)

木村文乃 Fumino Kimura (id:1315257)

松浦慎一郎 Shinichir? Matsuura (id:1350355)

松山研一 Ken'ichi Matsuyama (id:1008067)

竹原皮斯托 Pistol Takehara (id:1337781)

吉永亚由里 Ayuri Yoshinaga (id:1419659)

◎标 签 日本 / 2021 / 日本电影 / 松山研一 / 东出昌大 / 木村文乃 / 日影 / 松山健一

◎简 介

吉田惠辅导演新作《BLUE》!松山研一&木村文乃&柄本时生&东出昌大联合共演。

《白昼之雨》《犬猿》导演吉田惠辅新作《BLUE》情报解禁!本作是吉田导演自编自导,构想8年的完全原创作品!故事依然把镜头对准人,松山研一扮演前辈拳击手瓜田,东出昌大则扮演天才年轻拳手小川,木村文乃将扮演小川的婚约者,同时也是瓜田的初恋千佳,而柄本时生扮演为了女儿而奋斗的新人拳手楢崎。

?片名:BLUE

?导演?编剧?杀阵执导:吉田惠辅

?出演:松山研一,木村文乃,柄本时生,东出昌大等

?配给:Phantom Film

?公映时期:2021年4月

  1. ##### MediaInfo ######

  2. General

  3. Unique ID : 271943326241761837825303637953284228651 (0xCC966128205067024D0349D0ED39462B)

  4. Complete name : Blue.2021.1080p.FriDay.WEB-DL.H264.AAC-10001@BBQDDQ.COM.mkv

  5. Format : Matroska

  6. Format version : Version 4

  7. File size : 2.94 GiB

  8. Duration : 1 h 47 min

  9. Overall bit rate : 3 934 kb/s

  10. Encoded date : UTC 2021-09-11 02:17:53

  11. Writing application : mkvmerge v56.1.0 ('My Friend') 64-bit

  12. Writing library : libebml v1.4.2 + libmatroska v1.6.4


  13. Video

  14. ID : 1

  15. Format : AVC

  16. Format/Info : Advanced Video Codec

  17. Format profile : High@L4.1

  18. Format settings : CABAC / 1 Ref Frames

  19. Format settings, CABAC : Yes

  20. Format settings, Reference frames : 1 frame

  21. Format settings, GOP : M=1, N=60

  22. Codec ID : V_MPEG4/ISO/AVC

  23. Duration : 1 h 47 min

  24. Bit rate mode : Constant

  25. Bit rate : 3 805 kb/s

  26. Nominal bit rate : 4 000 kb/s

  27. Width : 1 920 pixels

  28. Height : 1 080 pixels

  29. Display aspect ratio : 16:9

  30. Frame rate mode : Constant

  31. Frame rate : 29.970 (30000/1001/53354) FPS

  32. Color space : YUV

  33. Chroma subsampling : 4:2:0

  34. Bit depth : 8 bits

  35. Scan type : Progressive

  36. Bits/(Pixel*Frame) : 0.061

  37. Stream size : 2.85 GiB (97%)

  38. Language : English

  39. Default : Yes

  40. Forced : No


  41. Audio

  42. ID : 2

  43. Format : AAC LC

  44. Format/Info : Advanced Audio Codec Low Complexity

  45. Codec ID : A_AAC-2

  46. Duration : 1 h 47 min

  47. Bit rate : 125 kb/s

  48. Channel(s) : 2 channels

  49. Channel layout : L R

  50. Sampling rate : 48.0 kHz

  51. Frame rate : 46.875 FPS (1024 SPF)

  52. Compression mode : Lossy

  53. Stream size : 96.1 MiB (3%)

  54. Language : Japanese

  55. Default : Yes

  56. Forced : No


  57. Text #1

  58. ID : 3

  59. Format : UTF-8

  60. Codec ID : S_TEXT/UTF8

  61. Codec ID/Info : UTF-8 Plain Text

  62. Duration : 1 h 40 min

  63. Bit rate : 36 b/s

  64. Count of elements : 1209

  65. Stream size : 27.0 KiB (0%)

  66. Title : Chinese Simplified

  67. Language : Chinese

  68. Default : Yes

  69. Forced : No


  70. Text #2

  71. ID : 4

  72. Format : UTF-8

  73. Codec ID : S_TEXT/UTF8

  74. Codec ID/Info : UTF-8 Plain Text

  75. Duration : 1 h 40 min

  76. Bit rate : 36 b/s

  77. Count of elements : 1209

  78. Stream size : 27.0 KiB (0%)

  79. Title : Chinese Traditional

  80. Language : Chinese

  81. Default : No

  82. Forced : No



文件下载


除非特别注明,本文『蓝色[中文字幕].Blue.2021.1080p.FriDay.WEB-DL.H264.AAC 2.94GB』来源于互联网机器人自动抓取,非本站原创。 浮游电影网不对本文拥有版权,如有侵犯,请联系邮箱:fuyouu#yandex.com[#换成@]投诉。我们会在15个工作日内删除。 但烦请转载时请标明出处:“本文转载于『浮游电影网』,原文地址:https://www.fuyouu.com/14329.html

评论吧骚年!

发表你的见解   

昵称*

E-mail*(建议输入,以便收到博主回复的提示邮件)

验证码*

您可以使用eMule或eMule Mod(Windows)、aMule(Win、Linux、Mac)等软件下载eD2k链接。。
eMule收藏集(.emulecollection)文件是您选中的所有链接的列表文件。eMule可以直接下载它们。
按住SHIFT键选择可以选中多个选择框。
可用文件名和大小选择器来选择文件。
文件名选择器帮您根据文件名称或后缀来选择文件。不分大小写。
符号使用:
和:空格( )、+
不包含:-
或:|
转义:一对英文引号("");
匹配开头:^
匹配结尾:$
例如:
选中所有名称中包含有“eMule”或“0.49c”字眼,但不包含有“exe”字眼的:emule|0.49c -exe
选中所有名称的开头是“eMule”,结尾是“0.49c”的:^emule 0.49c$
选中所有名称中带有“eMule 0.49c”的(必须是“eMule 0.49c”,中间没有别的字符,不能是“eMule fake 0.49c”),需要转义:"emule 0.49c"
大小选择器帮您根据文件大小选择文件。